//TJADB Project
TITLE:Saikou Toutatsuten
TITLEJA:最高到達点
SUBTITLE:--One Piece
SUBTITLEJA:「ワンピース」より
BPM:132
WAVE:Saikou Toutatsuten.ogg
OFFSET:-2.582
DEMOSTART:40.764 //Shinuchi:
12730/7360/3940/2470

COURSE:Oni
LEVEL:7
BALLOON:14
SCOREINIT:740,2690
SCOREDIFF:205
#START
0,
12212112,
1001100110121000,
12212112,
1010201110201000,
1020201020101011,
1001101000102020,
1020201020101011,
11212200, //9
3011201020101020,
1021100110121000,
1011201020101011,
1010201110201000,
1011201020101020,
1021101000102020,
1011201020101011,
11212202, //17
3360,
000000000000000008000000000000100100100000700000,
0008,
3030403040022000, //21
#GOGOSTART
1021102010201110,
1020111000121020,
1021102010201110,
1020111000102220,
1021102010201110,
1020111000111020,
1011102011102010,
33434033, //29
1021102010201120,
1020111000102010,
1021102010201120,
1020111000102010,
1021102011201120,
1020111000111020,
1011102011102010,
33434033, //37
1110201110201020,
1110201110201120,
1110201110201020,
1110201110201120,
1110201110201020,
1110201110200010,
1011102011102010,
33434033, //45
#GOGOEND
0400,
0,
0, //48
#END

COURSE:Hard
LEVEL:5
BALLOON:12,25
SCOREINIT:890,4390
SCOREDIFF:278
#START
0,
1222,
10202120,
1222,
10212120,
1222,
10210110,
10211021,
11201100, //9
30202120,
10202110,
10202120,
10212110,
10202120,
10110120,
10211021,
11201100,
3360,
000000000000000008000000000000100000100000700000,
0008,
33434040, //21
#GOGOSTART
12211220,
12210110,
12211021,
12210020,
12211220,
12210110,
12211020,
33434030, //29
12211220,
12210120,
12211021,
12210020,
12211220,
12210120,
12211020,
33434030, //37
11210120,
11210110,
11210120,
11210110,
11210120,
11210110,
9,
00090008, //45
#GOGOEND
0,
0,
0, //48
#END

COURSE:Normal
LEVEL:3
BALLOON:9,17
SCOREINIT:1110,8450
SCOREDIFF:550
#START
0,
1,
11,
1,
11,
1,
1100,
1110,
11, //9
31,
1110,
11,
1110,
11,
10110000,
1120,
12,
3360,
000000000000000008000000000000100000000000700000,
0008,
30333000, //21
#GOGOSTART
1111,
10110000,
1111,
10110000,
1111,
10110000,
10111010,
30333000, //29
1112,
10110000,
1112,
10110000,
1112,
10110000,
10111010,
30333000, //37
10010020,
10010010,
10010020,
10010010,
10010010,
10010000,
9,
00090008, //45
#GOGOEND
0,
0,
0, //48
#END

COURSE:Easy
LEVEL:1
BALLOON:6,14
SCOREINIT:1160,15110
SCOREDIFF:1005
#START
0,
1,
1,
1,
1,
2,
2,
22,
2, //9
3,
1,
1,
11,
1,
1,
22,
2,
36,
000000000000000008000000000000000000000000700000,
00000800,
3330, //21
#GOGOSTART
11,
1100,
11,
1100,
11,
1100,
11,
3330, //29
11,
1100,
22,
2200,
11,
1100,
22,
3330, //37
1,
1001,
1,
1001,
1001,
1,
9,
00090008, //45
#GOGOEND
0,
0,
0, //48
#END
