//TJADB Project
TITLE:Wonderful PreCure! evolution!!
TITLEJA:わんだふるぷりきゅあ!evolution!!
SUBTITLE:--
SUBTITLEJA:
BPM:174
WAVE:Wonderful PreCure! evolution!!.ogg
OFFSET:-1.318
DEMOSTART:49.566

COURSE:Oni
LEVEL:6
BALLOON:7
SCOREINIT:3240
SCOREDIFF:0
#START
33,
30330000,
10110101,
01011020,
10110103,
03033020,
11210120,
1010202000102011,
11210111,
01220120, //10
1010201000102011,
11220120,
11221120,
22112210,
10201122,
10210120,
10220110,
10211000, //18
40401122,
1211,
10210117,
08,
11112020,
1110,
11112020,
3340, //26
11112020,
10101015,
000000000000000008000000000000000000200000000000,
1000200011101000,
1001001010002000,
1001001010002000,
3003003030004000,
600000000000000000000000000000000008000000000000,
01112222, //35
#GOGOSTART
1000200011102000,
11210200,
1110200011102000,
300000000000300000600000000000000008000000000000,
1000200011102000,
11210200,
1000111000100010,
04403000, //43
1010201011102000,
1110102000200000,
1110200011102000,
300000000000300000600000000000000008000000000000,
1010201011102000,
1110102000200000,
1000111000100060,
000000000008000000000000200000000000200000000000, //51
#GOGOEND
10011020,
10011020,
10011026,
000000000000000000000000000008000000000000000000, //55
#GOGOSTART
1010201011102000,
1110102000200000,
#GOGOEND
10220202,
03303000,
10110101,
01011020,
30330303,
03303040,
0, //64
#END

COURSE:Hard
LEVEL:4
BALLOON:5,25,18
SCOREINIT:5100
SCOREDIFF:0
#START
6,
000000000000000008000000000000000000000000000000,
10110101,
01011000,
10110103,
03033000,
10110020,
10110020,
10110101,
01110020, //10
10110020,
10110020,
11,
22,
1011,
10110000,
10110010,
10011000, //18
3322,
2011,
10110107,
08,
1110,
2220,
1110,
3330, //26
1110,
10101015,
000000000000000008000000000000000000100000000000,
1211,
1001001010000000,
1001001010000000,
9,
09,
8, //35
#GOGOSTART
10201110,
10110100,
11101110,
30330000,
10201110,
10110100,
10110105,
000000000000000008000000000000000000000000000000, //43
10201110,
10110100,
11101110,
30330000,
10201110,
10110100,
10110106,
000000000008000000000000200000000000200000000000, //51
#GOGOEND
1022,
1022,
10002006,
000000000000000000000000000008000000000000000000, //55
#GOGOSTART
10201110,
10110100,
#GOGOEND
10220205,
000000000000000008000000000000000000000000000000,
10110101,
01011000,
9,
09008000,
0, //64
#END

COURSE:Normal
LEVEL:2
BALLOON:9,14,10
SCOREINIT:11190
SCOREDIFF:0
#START
6,
000000000000000008000000000000000000000000000000,
10000001,
01,
10000003,
03,
1,
1,
10000001,
00010000, //10
1,
1,
1,
2,
1,
1,
1,
11, //18
3,
11,
7,
08,
11,
1,
11,
3, //26
11,
1,
1,
11,
12,
12,
9,
09,
8, //35
#GOGOSTART
1110,
10010000,
11,
30030000,
1110,
10010000,
10010001,
0, //43
1110,
10010000,
11,
30030000,
1110,
10010000,
10010003,
0, //51
#GOGOEND
2,
2,
20002004,
0, //55
#GOGOSTART
1110,
10010000,
#GOGOEND
10010001,
0,
10000001,
01,
9,
09008000,
0, //64
#END

COURSE:Easy
LEVEL:1
BALLOON:8,12,9
SCOREINIT:16880
SCOREDIFF:0
#START
6,
000000000000000008000000000000000000000000000000,
10000001,
0,
10000003,
0,
1,
1,
10000001,
0, //10
1,
1,
1,
1,
1,
0,
1,
0, //18
3,
1,
7,
08,
1,
0,
1,
3, //26
1,
0,
1,
1,
11,
11,
9,
09,
8, //35
#GOGOSTART
11,
1,
11,
3,
11,
1,
10000001,
0, //43
11,
1,
11,
3,
11,
1,
10000003,
0, //51
#GOGOEND
2,
2,
20000004,
0, //55
#GOGOSTART
11,
1,
#GOGOEND
10000001,
0,
10000001,
0,
9,
09008000,
0, //64
#END
