//TJADB Project
TITLE:SAVAGE DELIGHT
TITLEJA:SAVAGE DELIGHT
SUBTITLE:--Yuki Nishijima
SUBTITLEJA:Yuki Nishijima
BPM:139
WAVE:SAVAGE DELIGHT.ogg
OFFSET:-0.209
DEMOSTART:67.499

COURSE:Oni
LEVEL:10
BALLOON:10,12,6,6,4
SCOREINIT:1160
SCOREDIFF:0
#START
#MEASURE 1/16
#SCROLL 2
0,
#SCROLL 2.16
0,
#SCROLL 2.31
0,
#SCROLL 2.45
0,
#SCROLL 2.59
0,
#SCROLL 2.71
0,
#SCROLL 2.81
0,
#SCROLL 2.89
0,
#SCROLL 2.95
0,
#SCROLL 2.99
0,
#SCROLL 3
0,
#SCROLL 2.99
0,
#SCROLL 2.95
2,
#SCROLL 2.89
2,
#SCROLL 2.81
2,
#SCROLL 2.71
1,
#SCROLL 2.59
1,
#SCROLL 2.45
1,
#SCROLL 2.31
2,
#SCROLL 2.16
1, //20
#MEASURE 7/8
#SCROLL 2
11020210021120,
11020210101120,
11020210021120,
11020210101120, //24
22122122122120,
22122122122111,
#MEASURE 4/4
#SCROLL 2.5
3004003004003006, //27
#MEASURE 1/16
#SCROLL 2.41
0,
#SCROLL 2.32
0,
#SCROLL 2.24
0,
#SCROLL 2.15
0,
#SCROLL 2.06
0,
#SCROLL 1.97
0,
#SCROLL 1.88
0,
#SCROLL 1.79
0,
#SCROLL 1.71
8,
#SCROLL 1.62
0,
#SCROLL 1.53
0,
#SCROLL 1.44
2,
#SCROLL 1.35
1,
#SCROLL 1.26
0,
#SCROLL 1.18
0,
#SCROLL 1.09
0, //43
#MEASURE 7/8
#SCROLL 1
30040222112211,
#MEASURE 3/4
2
#SCROLL 2
40040
#SCROLL 1
1
#SCROLL 2
30030,
#SCROLL 1
3
#SCROLL 2
4000
#SCROLL 1
1112221,
20
#SCROLL 2
4000004000
#SCROLL 1
101010221000, //47
#SCROLL 2
400
#SCROLL 1
101111222,
202020000101010000202020000101010000,
202020000700000000000000000000800000,
110101002220, //51
#MEASURE 7/8
30040222112211,
#MEASURE 3/4
2
#SCROLL 2
40040
#SCROLL 1
1
#SCROLL 2
30030,
#SCROLL 1
3
#SCROLL 2
4000
#SCROLL 1
1222121,
200
#SCROLL 2
400000000400000
#SCROLL 1
101010000200100000, //55
#SCROLL 2
400
#SCROLL 1
101111222,
202020000101010000101010000202020000,
101010000100000000100000200100200000,
200200100200100200101010101020202020, //59
101201102021,
101010000200000100100000200000100100,
202020000200100100100000200000100100,
200000000200000000100100200200101010, //63
200000010101020000200200100000100000,
112200221100222200,
222200111100222200,
100100202020200100100200100000200100, //67
#MEASURE 11/8
101010000200000100100000200000101010000200000000100000200000200200,
#MEASURE 5/8
101010000200000100100000200000,
#BARLINEOFF
#MEASURE 3/4
#SCROLL 1.44
1
#SCROLL 1.2
1
#SCROLL 1
2
#SCROLL 1.44
1
#SCROLL 1.2
1
#SCROLL 1
2
#SCROLL 1.44
1
#SCROLL 1.2
2
#SCROLL 1
2
#SCROLL 1.44
1
#SCROLL 1.2
2
#SCROLL 1
2, //70
#BARLINEON
100201102112,
202020200200000200200000100000100000,
200200000101010000100000200000000000,
102101202202, //74
#MEASURE 11/8
100000000200000100100000100000200000101010100200000000100000200100,
#MEASURE 5/8
1010201022,
#MEASURE 3/4
2
#SCROLL 1.06
2
#SCROLL 1.12
1
#SCROLL 1.19
2
#SCROLL 1.26
2
#SCROLL 1.33
1
#SCROLL 1.41
2
#SCROLL 1.50
1
#SCROLL 1.59
1
#SCROLL 1.68
2
#SCROLL 1.78
1
#SCROLL 1.89
1, //77
#MEASURE 3/4
#SCROLL 2
100000200100000000100000200000202010,
#SCROLL 2.2
120201102112,
#SCROLL 2.4
102102102212,
#SCROLL 2.6
500000000000000000000000000008000000, //81
#MEASURE 1/4
#SCROLL 2.8
4,
#BARLINEOFF
#MEASURE 1/16
#BPMCHANGE 17.375
0,
#MEASURE 1/4
#BPMCHANGE 139
#SCROLL 1.5
112
#GOGOSTART
3, //84
#BARLINEON
#MEASURE 4/4
0010402301102001,
0010202100112221,
1011200122102023,
0011211040040110, //88
1222020401012004,
0111411400001124,
011111222111222111111222,
202020202000000200200100700000000000000000000000, //92
8111402401102212,
0112221201101114,
000000100100200100100200202020100100200100100400,
101010202020101020200400000400000400000200200200, //96
1111020402212214,
000100100100202020200400000100000100200000100400,
0111122201112224,
#MEASURE 7/8
#SCROLL 2
11414414022211, //100
#MEASURE 11/8
#SCROLL 1.5
70800000
#GOGOEND
000,
#SCROLL 1
1002212212212121221212,
1212121212112112112111,
202010202010202010202010202010202010200000100100100100100100200000, //104
#MEASURE 5/4
11112112112121212020,
#MEASURE 11/8
111222111222111111700000800000000,
#MEASURE 5/4
101010101010101010202020202020101010202020002000200100000200,
#MEASURE 5/8
100100202020200200100100200200,
#MEASURE 3/4
100100100100202020100700000000800000, //109
#SCROLL 1.1
201101201120,
#SCROLL 1.2
112111201121,
#SCROLL 1.3
212121212121,
#SCROLL 1.4
211211211211, //113
#MEASURE 9/8
#SCROLL 2
400000000400000000300000000
#SCROLL 1.5
220200200110100100100200000,
#BARLINEOFF
#MEASURE 11/8
#SCROLL 2
400000000300000000400000000
#SCROLL 1.5
100201010101010201010101010200100100100, //115
#SCROLL 2
600000000000000000000000000000000000000000000000000000000008000000,
#MEASURE 4/4
#SCROLL 0.66
1120000000000000,
#BARLINEON
#SCROLL 1
0, //118
#END

COURSE:Hard
LEVEL:7
BALLOON:8,14,2,2,2,11,10,18,14,5,5,2,2,2
SCOREINIT:2070
SCOREDIFF:0
#START
#MEASURE 1/16
0,
#SCROLL 1.16
0,
#SCROLL 1.31
0,
#SCROLL 1.45
0,
#SCROLL 1.59
0,
#SCROLL 1.71
0,
#SCROLL 1.81
0,
#SCROLL 1.89
0,
#SCROLL 1.95
0,
#SCROLL 1.99
0,
#SCROLL 2
0,
#SCROLL 1.99
0,
#SCROLL 1.95
0,
#SCROLL 1.89
0,
#SCROLL 1.81
0,
#SCROLL 1.71
0,
#SCROLL 1.59
0,
#SCROLL 1.45
0,
#SCROLL 1.31
0,
#SCROLL 1.16
0, //20
#MEASURE 7/8
#SCROLL 1
11010110002020,
11010110001020,
11010110002020,
11010110001020, //24
22022022022000,
22022022022000,
#MEASURE 4/4
3004003004003006, //27
#MEASURE 1/16
0,
#SCROLL 1.2
0,
#SCROLL 1.38
0,
#SCROLL 1.56
0,
#SCROLL 1.71
0,
#SCROLL 1.83
0,
#SCROLL 1.92
0,
#SCROLL 1.98
0,
#SCROLL 2
8,
#SCROLL 1.98
0,
#SCROLL 1.92
0,
#SCROLL 1.83
0,
#SCROLL 1.71
0,
#SCROLL 1.56
0,
#SCROLL 1.38
0,
#SCROLL 1.2
0, //43
#MEASURE 7/8
#SCROLL 1
30040220111020,
#MEASURE 3/4
040040030030,
040001110222,
040040110100, //47
400001102220,
2121,
200700000080,
110100002000, //51
#MEASURE 7/8
30040220111020,
#MEASURE 3/4
040040030030,
040001110222,
040040111010, //55
400101102220,
2112,
7,
8, //59
100201102020,
100201102010,
201121,
200200110200, //63
200200201010,
787820,
207820,
700008, //67
#MEASURE 11/8
1002001020100200102020,
#MEASURE 5/8
1002001020,
#BARLINEOFF
#MEASURE 3/4
102202202200, //70
#BARLINEON
100201102000,
200202201000,
220100102000,
101100202200, //74
#MEASURE 11/8
1002001010201002001020,
#MEASURE 5/8
1010201022,
#MEASURE 3/4
202202202200, //77
#MEASURE 3/4
101100102020,
100201102200,
101101102200,
500000000000000000000000000008000000, //81
#MEASURE 1/4
4,
#BARLINEOFF
#MEASURE 1/16
#BPMCHANGE 17.375
0,
#MEASURE 1/4
#BPMCHANGE 139
110
#GOGOSTART
3, //84
#BARLINEON
#MEASURE 4/4
0010400300102001,
0010202200102000,
1010200110102003,
0010200040040000, //88
1102020400011004,
0110400400001104,
0110111011101110,
2222022070000000, //92
0800400401102202,
0110220200001104,
0010110200111104,
0022220404040220, //96
1111020402202204,
0110220401011004,
0110110201102204,
#MEASURE 7/8
00402204022010, //100
#MEASURE 11/8
7000000000000008
#GOGOEND
000000,
#SCROLL 1
1002022022011020220201,
1011020202011022011020,
2010201020102011011020, //104
#MEASURE 5/4
7000008022,
#MEASURE 11/8
12121170800,
#MEASURE 5/4
11101110202222201101,
#MEASURE 5/8
1022201110,
#MEASURE 3/4
111708, //109
201102201100,
102201101100,
202202201100,
201101102200, //113
#MEASURE 9/8
400400300202201020,
#BARLINEOFF
#MEASURE 11/8
4003004000708070807080, //115
600000000000000000000000000000000000000000000000000000000008000000,
#MEASURE 4/4
14000000,
#BARLINEON
0, //118
#END

COURSE:Normal
LEVEL:6
BALLOON:5,9,3,3,7,6,12,9,3,3
SCOREINIT:3440
SCOREDIFF:0
#START
#MEASURE 1/16
0,
#SCROLL 1.16
0,
#SCROLL 1.31
0,
#SCROLL 1.45
0,
#SCROLL 1.59
0,
#SCROLL 1.71
0,
#SCROLL 1.81
0,
#SCROLL 1.89
0,
#SCROLL 1.95
0,
#SCROLL 1.99
0,
#SCROLL 2
0,
#SCROLL 1.99
0,
#SCROLL 1.95
0,
#SCROLL 1.89
0,
#SCROLL 1.81
0,
#SCROLL 1.71
0,
#SCROLL 1.59
0,
#SCROLL 1.45
0,
#SCROLL 1.31
0,
#SCROLL 1.16
0, //20
#MEASURE 7/8
#SCROLL 1
10010010001000,
20020020002000,
10010010001000,
20020020002000, //24
20020020020000,
20020020020000,
#MEASURE 4/4
3003003003003006, //27
#MEASURE 1/16
0,
#SCROLL 1.2
0,
#SCROLL 1.38
0,
#SCROLL 1.56
0,
#SCROLL 1.71
0,
#SCROLL 1.83
0,
#SCROLL 1.92
0,
#SCROLL 1.98
0,
#SCROLL 2
8,
#SCROLL 1.98
0,
#SCROLL 1.92
0,
#SCROLL 1.83
0,
#SCROLL 1.71
0,
#SCROLL 1.56
0,
#SCROLL 1.38
0,
#SCROLL 1.2
0, //43
#MEASURE 7/8
#SCROLL 1
40040000000000,
#MEASURE 3/4
040040030030,
040000000000,
040040200200, //47
400001001000,
2121,
200700000080,
0, //51
#MEASURE 7/8
30030000000000,
#MEASURE 3/4
040040030030,
040000000000,
040040200020, //55
4,
2112,
7,
8, //59
100200200010,
100200100020,
201110,
200000020200, //63
200200101000,
782,
278,
700008, //67
#MEASURE 11/8
1002001000100200100000,
#MEASURE 5/8
1002001000,
#BARLINEOFF
#MEASURE 3/4
1111, //70
#BARLINEON
1210,
200200202000,
200100101000,
1122, //74
#MEASURE 11/8
1002001010001002001000,
#MEASURE 5/8
11110,
#MEASURE 3/4
2222, //77
#MEASURE 3/4
100100101000,
1211,
1112,
500000000000000000000008000000000000, //81
#MEASURE 1/4
4,
#BARLINEOFF
#MEASURE 1/16
#BPMCHANGE 17.375
0,
#MEASURE 1/4
#BPMCHANGE 139
100
#GOGOSTART
3, //84
#BARLINEON
#MEASURE 4/4
0000400300002001,
0000200100002000,
1000200020002003,
0000200040040000, //88
3002020400002004,
0000400400001004,
0010100010101002,
0202000070000000, //92
0800400400002002,
0010100200001004,
0010100200001004,
0020200404040000, //96
3010020400002004,
0010100400002004,
0010100200101004,
#MEASURE 7/8
00402004000000, //100
#MEASURE 11/8
7000000000000008
#GOGOEND
000000,
#SCROLL 1
1002002002002020200200,
1002002020202002002000,
2000200020002001001010, //104
#MEASURE 5/4
70082,
#MEASURE 11/8
22222070800,
#MEASURE 5/4
10101010002020202002,
#MEASURE 5/8
02220,
#MEASURE 3/4
111708, //109
2121,
1121,
2121,
2222, //113
#MEASURE 9/8
400400300200100020,
#BARLINEOFF
#MEASURE 11/8
4003004000200010001000, //115
600000000000000000000000000000000000000000000000000000000008000000,
#MEASURE 4/4
04000000,
#BARLINEON
0, //118
#END

COURSE:Easy
LEVEL:5
BALLOON:4,7,3,3,3,10,9,7,2
SCOREINIT:6560
SCOREDIFF:0
#START
#MEASURE 1/16
0,
#SCROLL 1.16
0,
#SCROLL 1.31
0,
#SCROLL 1.45
0,
#SCROLL 1.59
0,
#SCROLL 1.71
0,
#SCROLL 1.81
0,
#SCROLL 1.89
0,
#SCROLL 1.95
0,
#SCROLL 1.99
0,
#SCROLL 2
0,
#SCROLL 1.99
0,
#SCROLL 1.95
0,
#SCROLL 1.89
0,
#SCROLL 1.81
0,
#SCROLL 1.71
0,
#SCROLL 1.59
0,
#SCROLL 1.45
0,
#SCROLL 1.31
0,
#SCROLL 1.16
0, //20
#MEASURE 7/8
#SCROLL 1
10010010000000,
20020020000000,
10010010000000,
20020020000000, //24
20020020000000,
20020020000000,
#MEASURE 4/4
3000003000000006, //27
#MEASURE 1/16
0,
#SCROLL 1.2
0,
#SCROLL 1.38
0,
#SCROLL 1.56
0,
#SCROLL 1.71
0,
#SCROLL 1.83
0,
#SCROLL 1.92
0,
#SCROLL 1.98
0,
#SCROLL 2
8,
#SCROLL 1.98
0,
#SCROLL 1.92
0,
#SCROLL 1.83
0,
#SCROLL 1.71
0,
#SCROLL 1.56
0,
#SCROLL 1.38
0,
#SCROLL 1.2
0, //43
#MEASURE 7/8
#SCROLL 1
4,
#MEASURE 3/4
040000040000,
040000000000,
040000000000, //47
400001000000,
22,
100700000080,
0, //51
#MEASURE 7/8
3,
#MEASURE 3/4
040000040000,
040000000000,
040000000000, //55
41,
21,
7,
8, //59
12,
11,
21,
2, //63
200200200000,
78,
78,
78, //67
#MEASURE 11/8
10010100100,
#MEASURE 5/8
10010,
#BARLINEOFF
#MEASURE 3/4
1110, //70
#BARLINEON
11,
2220,
1100,
1110, //74
#MEASURE 11/8
10010010010,
#MEASURE 5/8
10010,
#MEASURE 3/4
2220, //77
#MEASURE 3/4
1110,
2220,
1110,
500000000000000008000000000000000000, //81
#MEASURE 1/4
4,
#BARLINEOFF
#MEASURE 1/16
#BPMCHANGE 17.375
0,
#MEASURE 1/4
#BPMCHANGE 139
000
#GOGOSTART
3, //84
#BARLINEON
#MEASURE 4/4
0000000300000002,
0000000200000000,
1000100010000003,
0000000040040000, //88
3000000400000004,
0000400400000003,
0111,
7, //92
8000400400000001,
0000100100000004,
0000000200000004,
0000000400040000, //96
3000000400000004,
0000000400000004,
0000000200000002,
#MEASURE 7/8
04,//100
#MEASURE 11/8
7000000000000008
#GOGOEND
000000,
#SCROLL 1
2002002000002000200000,
1001001000002002002000,
20202020000, //104
#MEASURE 5/4
70080,
#MEASURE 11/8
500000000000000008000000000000000000700000000000800000000000000000,
#MEASURE 5/4
500000000000000000000000000000000000000008000000000000000000,
#MEASURE 5/8
5,
#MEASURE 3/4
000000000000000008000000000000000000, //109
22,
12,
22,
22, //113
#MEASURE 9/8
430,
#BARLINEOFF
#MEASURE 11/8
40040000000, //115
6,
#MEASURE 4/4
000008000000000000000000000000000000000000000000,
#BARLINEON
0, //118
#END
