//TJADB Project
TITLE:miracle shooting star
TITLEJA:miracle shooting star
SUBTITLE:--Neko no Yona Mono
SUBTITLEJA:ねこのようなもの
BPM:180
WAVE:miracle shooting star.ogg
OFFSET:-1.310
DEMOSTART:64.562

COURSE:Oni
LEVEL:8
BALLOON:10,16
SCOREINIT:1680
SCOREDIFF:0
#START
3222,
20220221,
1000200020022020,
2000000000200210, //4
10101011,
01101110,
11111113,
0000221022102210, //8
1000200010012010,
1000100010012010,
10002122,
1000100010202210, //12
1001001001001001,
0020020020020022,
1222122212212210,
0011201020102210, //16
1000200010102202,
1212,
1000100010102202,
0000100010012010, //20
1001201010012010,
1001201010012010,
100000100000200000500000000000000000000008000000,
0000200010012010, //24
0000221010102202,
#MEASURE 2/4
12, //26
#BARLINEOFF
#MEASURE 1/64
1,
#BARLINEON
#MEASURE 1/32
#SCROLL 1.54
0,
#SCROLL 1.63
0,
#SCROLL 1.71
0,
#SCROLL 1.79
0,
#SCROLL 1.88
0,
#SCROLL 1.96
0,
#SCROLL 1.97
0,
#SCROLL 1.91
0
#SCROLL 1
2,
#SCROLL 1.84
0,
#SCROLL 1.78
0,
#SCROLL 1.72
0,
#SCROLL 1.65
0,
#SCROLL 1.59
0,
#SCROLL 1.53
0,
#SCROLL 1.47
0,
#SCROLL 1.4
0,
#SCROLL 1.34
0,
#SCROLL 1.28
0,
#SCROLL 1.21
0,
#SCROLL 1.15
0,
#SCROLL 1.09
0,
#SCROLL 1.03
0,
#SCROLL 0.96
0,
#MEASURE 1/64
#SCROLL 0.9
0, //51(+2)
#BARLINEOFF
#MEASURE 3/4
#SCROLL 1
000010102202,
#BARLINEON
#MEASURE 4/4
1001201010012010, //53(+2)
3003003030030030,
4004004040040040,
1000400010004021,
02700008, //57(+2)
1001101022111010,
1001101022111010,
1021102110211021,
1021102222112211, //61(+2)
1001101022111010,
1001101022111010,
11270000,
0000008022022210, //65(+2)
0001102011102010,
0001102011102010,
2000000030030030,
#MEASURE 1/4
0,
#BARLINEOFF
#MEASURE 1/64
2,
#BARLINEON
#MEASURE 15/64
#SCROLL 6
0,
#BARLINEOFF
#MEASURE 2/4
#SCROLL 1
0120, //72(+2)
#BARLINEON
#MEASURE 4/4
1001101010011010,
1001101010011010,
11111111,
2020222200000000, //76(+2)
#MEASURE 1/4
#GOGOSTART
3
#GOGOEND
0,
#MEASURE 3/4
#SCROLL 4
0000
#SCROLL 1
#GOGOSTART
10010010,
#MEASURE 4/4
1022100010210210,
1001001002002001, //80(+2)
#MEASURE 1/16
0,
#GOGOEND
#MEASURE 1/32
#SCROLL 2
0,
0,
0,
0,
0,
0,
0,
0,
0,
0,
0,
0,
0,
0,
#BARLINEOFF
#MEASURE 2/4
#SCROLL 1
00102210, //96(+2)
#BARLINEON
#MEASURE 4/4
#GOGOSTART
1000100010012010,
1001201010012010,
1001201010012010,
0020201110102000, //100(+2)
#GOGOEND
1111100010002000,
2222200010002000,
1111100010002000,
2222200010002000, //104(+2)
11110222,
01110441,
11111222,
21111330, //108(+2)
#GOGOSTART
6,
000000000000000000000000000000000008000000000000,
#GOGOEND
2001
#GOGOSTART
2010
#GOGOEND
2110
#GOGOSTART
2011,
#GOGOEND
#MEASURE 2/4
12
#GOGOSTART
21, //112(+2)
#MEASURE 4/4
111022201110,
2020221010101020,
#GOGOEND
#SCROLL 8
500000000000000000000000000000000008000000000000, //115(+2)
#SCROLL 1
#GOGOSTART
1022100010012010,
1000100010012010,
1022100010012010,
0111120000111200, //119(+2)
1022100010012010,
11220122,
1022100010002011,
2222111102211221, //123(+2)
1000221100012010,
1000100010012010,
1221101010002000,
1020201010222000, //127(+2)
3003003003003004,
0040040040040022,
1111111111111110,
#GOGOEND
00000002, //131(+2)
#MEASURE 49/32
0, //132(+3)
#MEASURE 1/64
#SCROLL 1.4
0,
#MEASURE 1/32
0,
#MEASURE 3/64
#SCROLL 1.39
0,
#SCROLL 1.37
0,
#MEASURE 1/16
#SCROLL 1.36
0,
#SCROLL 1.34
0,
#MEASURE 5/64
#SCROLL 1.32
0,
#MEASURE 3/32
#SCROLL 1.3
0,
#MEASURE 7/64
#SCROLL 1.28
0,
#MEASURE 5/32
#SCROLL 1.24
0,
#MEASURE 4/4
#SCROLL 1.2
0, //143(+3)
#END

COURSE:Hard
LEVEL:6
BALLOON:8,13
SCOREINIT:2330
SCOREDIFF:0
#START
3222,
20220220,
1222,
2, //4
10101011,
01101110,
11111111,
0000222022202220, //8
1000200010010010,
1000100010010010,
10002222,
1000100010002220, //12
1001001001001001,
0020020020020020,
1110111011111110,
0, //16
1000200010010010,
1212,
1000100010010010,
0000200010010010, //20
1001001010010010,
2002002020020020,
100000100000100000500000000000000000000008000000,
0000200010010010, //24
0000000010010010,
#MEASURE 2/4
12, //26
#BARLINEOFF
#MEASURE 1/64
1,
#BARLINEON
#MEASURE 1/32
#SCROLL 1.54
0,
#SCROLL 1.63
0,
#SCROLL 1.71
0,
#SCROLL 1.79
0,
#SCROLL 1.88
0,
#SCROLL 1.96
0,
#SCROLL 1.97
0,
#SCROLL 1.91
0
#SCROLL 1
2,
#SCROLL 1.84
0,
#SCROLL 1.78
0,
#SCROLL 1.72
0,
#SCROLL 1.65
0,
#SCROLL 1.59
0,
#SCROLL 1.53
0,
#SCROLL 1.47
0,
#SCROLL 1.4
0,
#SCROLL 1.34
0,
#SCROLL 1.28
0,
#SCROLL 1.21
0,
#SCROLL 1.15
0,
#SCROLL 1.09
0,
#SCROLL 1.03
0,
#SCROLL 0.96
0,
#MEASURE 1/64
#SCROLL 0.9
0, //51(+2)
#BARLINEOFF
#MEASURE 3/4
#SCROLL 1
000010010010,
#BARLINEON
#MEASURE 4/4
1001001020020020, //53(+2)
3003003030030030,
4004004040040040,
10401022,
02700008, //57(+2)
1001001020101000,
1001001020101000,
1001001020101010,
0010100022202000, //61(+2)
1001001020101000,
1001001020101000,
11170000,
00008001, //65(+2)
01101101,
01101100,
2000000030030030,
#MEASURE 1/4
0,
#BARLINEOFF
#MEASURE 1/64
2,
#BARLINEON
#MEASURE 15/64
#SCROLL 6
0,
#BARLINEOFF
#MEASURE 2/4
#SCROLL 1
0, //72(+2)
#BARLINEON
#MEASURE 4/4
1001001010010010,
2002002020020020,
10101111,
22220000, //76(+2)
#MEASURE 1/4
#GOGOSTART
3
#GOGOEND
0,
#MEASURE 3/4
#SCROLL 4
0000
#SCROLL 1
#GOGOSTART
10010010,
#MEASURE 4/4
1121,
1001001002002002, //80(+2)
#MEASURE 1/16
0,
#GOGOEND
#MEASURE 1/32
#SCROLL 2
0,
0,
0,
0,
0,
0,
0,
0,
0,
0,
0,
0,
0,
0,
#BARLINEOFF
#MEASURE 2/4
#SCROLL 1
0, //96(+2)
#BARLINEON
#MEASURE 4/4
#GOGOSTART
1000100010010010,
1001001020020020,
1001001010010010,
02201110, //100(+2)
#GOGOEND
1111,
2222,
1111,
2222, //104(+2)
11110222,
01110440,
11110222,
01110330, //108(+2)
#GOGOSTART
6,
000000000000000000000000000000000008000000000000,
#GOGOEND
21
#GOGOSTART
21
#GOGOEND
21
#GOGOSTART
21,
#GOGOEND
#MEASURE 2/4
21
#GOGOSTART
21, //112(+2)
#MEASURE 4/4
112211,
22201111,
#GOGOEND
#SCROLL 8
500000000000000000000000000000000008000000000000, //115(+2)
#SCROLL 1
#GOGOSTART
1000100010010010,
1000100010010010,
1000200010010010,
0100210000102100, //119(+2)
1000100010010010,
11220220,
1112,
2220111002202000, //123(+2)
1000222210010010,
1000100010010010,
1001001010002000,
1000100010222000, //127(+2)
3003003003003004,
0040040040040040,
1010101011111111,
#GOGOEND
00000002, //131(+2)
#MEASURE 49/32
0, //132(+3)
#MEASURE 1/64
#SCROLL 1.4
0,
#MEASURE 1/32
0,
#MEASURE 3/64
#SCROLL 1.39
0,
#SCROLL 1.37
0,
#MEASURE 1/16
#SCROLL 1.36
0,
#SCROLL 1.34
0,
#MEASURE 5/64
#SCROLL 1.32
0,
#MEASURE 3/32
#SCROLL 1.3
0,
#MEASURE 7/64
#SCROLL 1.28
0,
#MEASURE 5/32
#SCROLL 1.24
0,
#MEASURE 4/4
#SCROLL 1.2
0, //143(+3)
#END

COURSE:Normal
LEVEL:5
BALLOON:6,8
SCOREINIT:3870
SCOREDIFF:0
#START
3222,
2222,
2222,
2, //4
1111,
1111,
10101111,
0, //8
1110,
1110,
12,
1110, //12
1001001001001001,
0010010010010010,
500000000000000000000000000000000000000000000008,
0, //16
11,
1110,
1111,
0210, //20
10011000,
20022000,
100000000000500000000000000000000000000008000000,
0110, //24
11,
#MEASURE 2/4
11, //26
#BARLINEOFF
#MEASURE 1/64
1,
#BARLINEON
#MEASURE 1/32
#SCROLL 1.54
0,
#SCROLL 1.63
0,
#SCROLL 1.71
0,
#SCROLL 1.79
0,
#SCROLL 1.88
0,
#SCROLL 1.96
0,
#SCROLL 1.97
0,
#SCROLL 1.91
0
#SCROLL 1
0,
#SCROLL 1.84
0,
#SCROLL 1.78
0,
#SCROLL 1.72
0,
#SCROLL 1.65
0,
#SCROLL 1.59
0,
#SCROLL 1.53
0,
#SCROLL 1.47
0,
#SCROLL 1.4
0,
#SCROLL 1.34
0,
#SCROLL 1.28
0,
#SCROLL 1.21
0,
#SCROLL 1.15
0,
#SCROLL 1.09
0,
#SCROLL 1.03
0,
#SCROLL 0.96
0,
#MEASURE 1/64
#SCROLL 0.9
0, //51(+2)
#BARLINEOFF
#MEASURE 3/4
#SCROLL 1
001001,
#BARLINEON
#MEASURE 4/4
12, //53(+2)
30033000,
40044000,
0303,
70000008, //57(+2)
10011000,
10011000,
1212,
1210, //61(+2)
10011000,
10011000,
10070000,
00008001, //65(+2)
01101002,
02202000,
1000000030030030,
#MEASURE 1/4
0,
#BARLINEOFF
#MEASURE 1/64
2,
#BARLINEON
#MEASURE 15/64
#SCROLL 6
0,
#BARLINEOFF
#MEASURE 2/4
#SCROLL 1
0, //72(+2)
#BARLINEON
#MEASURE 4/4
10011002,
20022001,
10101111,
0, //76(+2)
#MEASURE 1/4
#GOGOSTART
3
#GOGOEND
0,
#MEASURE 3/4
#SCROLL 4
0
#SCROLL 1
#GOGOSTART
00,
#MEASURE 4/4
1120,
1001001001001001, //80(+2)
#MEASURE 1/16
0,
#GOGOEND
#MEASURE 1/32
#SCROLL 2
0,
0,
0,
0,
0,
0,
0,
0,
0,
0,
0,
0,
0,
0,
#BARLINEOFF
#MEASURE 2/4
#SCROLL 1
0, //96(+2)
#BARLINEON
#MEASURE 4/4
#GOGOSTART
1110,
10011000,
10011001,
10011000, //100(+2)
#GOGOEND
1111,
2220,
1111,
2220, //104(+2)
10110111,
01110110,
20220222,
02220220, //108(+2)
#GOGOSTART
6,
000000000000000000000000000008000000000000000000,
#GOGOEND
21
#GOGOSTART
21
#GOGOEND
21
#GOGOSTART
21,
#GOGOEND
#MEASURE 2/4
21
#GOGOSTART
20, //112(+2)
#MEASURE 4/4
111,
1100,
#GOGOEND
#SCROLL 8
500000000000000000000000000008000000000000000000, //115(+2)
#SCROLL 1
#GOGOSTART
1210,
1210,
1212,
0202, //119(+2)
1210,
11110020,
1112,
500000000000000000000000000008000000000000000000, //123(+2)
1210,
1212,
10011000,
1110, //127(+2)
3003003003003004,
0040040040040040,
600000000008,
#GOGOEND
00000002, //131(+2)
#MEASURE 49/32
0, //132(+3)
#MEASURE 1/64
#SCROLL 1.4
0,
#MEASURE 1/32
0,
#MEASURE 3/64
#SCROLL 1.39
0,
#SCROLL 1.37
0,
#MEASURE 1/16
#SCROLL 1.36
0,
#SCROLL 1.34
0,
#MEASURE 5/64
#SCROLL 1.32
0,
#MEASURE 3/32
#SCROLL 1.3
0,
#MEASURE 7/64
#SCROLL 1.28
0,
#MEASURE 5/32
#SCROLL 1.24
0,
#MEASURE 4/4
#SCROLL 1.2
0, //143(+3)
#END

COURSE:Easy
LEVEL:4
BALLOON:6,4,6,6,14,5
SCOREINIT:5440
SCOREDIFF:0
#START
2222,
2222,
2222,
2, //4
1111,
1111,
10001111,
0, //8
11,
1110,
12,
1110, //12
5,
000000000000000000000000000000000000000008000000,
7,
8, //16
11,
1110,
11,
0110, //20
10011000,
10011000,
100000000000500000000000000000000000000008000000,
0110, //24
11,
#MEASURE 2/4
11, //26
#BARLINEOFF
#MEASURE 1/64
1,
#BARLINEON
#MEASURE 1/32
#SCROLL 1.54
0,
#SCROLL 1.63
0,
#SCROLL 1.71
0,
#SCROLL 1.79
0,
#SCROLL 1.88
0,
#SCROLL 1.96
0,
#SCROLL 1.97
0,
#SCROLL 1.91
0
#SCROLL 1
1,
#SCROLL 1.84
0,
#SCROLL 1.78
0,
#SCROLL 1.72
0,
#SCROLL 1.65
0,
#SCROLL 1.59
0,
#SCROLL 1.53
0,
#SCROLL 1.47
0,
#SCROLL 1.4
0,
#SCROLL 1.34
0,
#SCROLL 1.28
0,
#SCROLL 1.21
0,
#SCROLL 1.15
0,
#SCROLL 1.09
0,
#SCROLL 1.03
0,
#SCROLL 0.96
0,
#MEASURE 1/64
#SCROLL 0.9
0, //51(+2)
#BARLINEOFF
#MEASURE 3/4
#SCROLL 1
0,
#BARLINEON
#MEASURE 4/4
2220, //53(+2)
30033000,
40044000,
0303,
70000008, //57(+2)
10011000,
10011000,
1110,
1110, //61(+2)
10011000,
10011000,
10070000,
00008003, //65(+2)
00000003,
0,
1000000030030030,
#MEASURE 1/4
0,
#BARLINEOFF
#MEASURE 1/64
0,
#BARLINEON
#MEASURE 15/64
#SCROLL 6
0,
#BARLINEOFF
#MEASURE 2/4
#SCROLL 1
0, //72(+2)
#BARLINEON
#MEASURE 4/4
10011000,
10011000,
7,
8, //76(+2)
#MEASURE 1/4
#GOGOSTART
3
#GOGOEND
0,
#MEASURE 3/4
#SCROLL 4
0
#SCROLL 1
#GOGOSTART
00,
#MEASURE 4/4
1110,
1001001001001001, //80(+2)
#MEASURE 1/16
0,
#GOGOEND
#MEASURE 1/32
#SCROLL 2
0,
0,
0,
0,
0,
0,
0,
0,
0,
0,
0,
0,
0,
0,
#BARLINEOFF
#MEASURE 2/4
#SCROLL 1
0, //96(+2)
#BARLINEON
#MEASURE 4/4
#GOGOSTART
1110,
10011000,
1110,
2, //100(+2)
#GOGOEND
1110,
2220,
1110,
2220, //104(+2)
11,
1110,
2222,
2222, //108(+2)
#GOGOSTART
6,
000000000000000000000000000008000000000000000000,
#GOGOEND
2
#GOGOSTART
2
#GOGOEND
2
#GOGOSTART
2,
#GOGOEND
#MEASURE 2/4
2
#GOGOSTART
2, //112(+2)
#MEASURE 4/4
7,
0008,
#GOGOEND
#SCROLL 8
500000000000000000000008000000000000000000000000, //115(+2)
#SCROLL 1
#GOGOSTART
11,
1110,
0202,
0201, //119(+2)
11,
1110,
2222,
500000000000000000000000000008000000000000000000, //123(+2)
1110,
2220,
1011,
11, //127(+2)
5,
000000000000000000000000000000000000000008000000,
7,
#GOGOEND
8, //131(+2)
#MEASURE 49/32
0, //132(+3)
#MEASURE 1/64
#SCROLL 1.4
0,
#MEASURE 1/32
0,
#MEASURE 3/64
#SCROLL 1.39
0,
#SCROLL 1.37
0,
#MEASURE 1/16
#SCROLL 1.36
0,
#SCROLL 1.34
0,
#MEASURE 5/64
#SCROLL 1.32
0,
#MEASURE 3/32
#SCROLL 1.3
0,
#MEASURE 7/64
#SCROLL 1.28
0,
#MEASURE 5/32
#SCROLL 1.24
0,
#MEASURE 4/4
#SCROLL 1.2
0, //143(+3)
#END
