//TJADB Project
TITLE:Daisuki ni Nareba Iin Janai?
TITLEJA:大好きになればいいんじゃない?
SUBTITLE:--Strawberry Prince
SUBTITLEJA:すとぷり
BPM:128
WAVE:Daisuki ni Nareba Iin Janai.ogg
OFFSET:-2.778
DEMOSTART:55.277

COURSE:Oni
LEVEL:6
BALLOON:
SCOREINIT:3270
SCOREDIFF:0
#START
1010201110102010,
0010201110202000,
11211121,
1110201110102000,
1000100020102011,
11120120,
1000100020102022,
22110120, //8
10212021,
1110101020201010,
1002001000102000,
2001002000202000,
1000100020102011,
11120120,
1000100020102022,
22110120, //16
10212021,
1110201020201010,
500000000000000000000008000000100000200000000000,
1001001011102000,
3003003000101020,
01121120,
3003003000101020,
0020101020111000,
1001101010011010,
1002202020022020,
1001101010101000,
33304440, //28
#GOGOSTART
1010201101102000,
1010201102202000,
11211121,
2002102010012010,
1010201101102000,
1010201102202000,
30304046,
000000000000000000000000000000000008000000000000, //36
11221040,
22112040,
11221120,
1000201022202000,
1010201101102000,
1010201102202000,
1011202220222020,
1002201010102000, //44
#GOGOEND
3434,
600000000000000000000000000000000008000000000000,
0,
0, //48
#END

COURSE:Hard
LEVEL:3
STYLE:SINGLE
BALLOON:18
SCOREINIT:5340
SCOREDIFF:0
#START
10201121,
01210120,
9009,
8,
10102002,
21120000,
10102002,
22110000, //8
10210000,
00011121,
1001001000000000,
2002002000000000,
10102002,
21120000,
10102002,
22110000, //16
00001021,
00011121,
500000000000000000000000000000000000000000000008,
0,
3003003000101020,
01111020,
3003003000101020,
02111000,
1001001010010010,
1002002020020020,
10111010,
33300000, //28
#GOGOSTART
1010200100102000,
1010200200102000,
11221122,
500000000000000008000000100000000000100000200000,
1010200100202000,
1010200200102000,
30304046,
000000000000000000000000000000000008000000000000, //36
11221000,
0004,
11221120,
10214000,
1010200100102000,
1010200200102000,
1122,
10211000, //44
#GOGOEND
3434,
600000000000000000000000000000000080000000000000,
0,
0, //48
#END
STYLE:Double
BALLOON:18
SCOREINIT:5340
SCOREDIFF:0
#START P1
10201121,
01210120,
9009,
8,
10102002,
21120000,
10102002,
22110000, //8
10210000,
00011121,
1001001000000000,
2002002000000000,
10102002,
21120000,
10102002,
22110000, //16
00001021,
00011121,
500000000000000000000000000000000000000000000008,
0,
3003003000101020,
01111020,
3003003000101020,
02111000,
1001001010010010,
1002002020020020,
10111010,
33300000, //28
#GOGOSTART
1010200100102000,
1010200200102000,
11221122,
500000000000000008000000100000000000100000200000,
1010200100202000,
1010200200102000,
30304046,
000000000000000000000000000000000008000000000000, //36
11221000,
0004,
11221120,
10214000,
1010200100102000,
1010200200102000,
1122,
10211000, //44
#GOGOEND
3434,
600000000000000000000000000000000080000000000000,
0,
0, //48
#END
BALLOON:18
SCOREINIT:5340
SCOREDIFF:0
#START P2
10201121,
01210120,
9009,
8,
10102002,
21120000,
10102002,
22110000, //8
00001021,
00011121,
1001001000000000,
2002002000000000,
10102002,
21120000,
10102002,
22110000, //16
10210000,
00011121,
500000000000000000000000000000000000000000000008,
0,
3003003000101020,
01111020,
3003003000101020,
02111000,
1001001010010010,
1002002020020020,
10111010,
00004440, //28
#GOGOSTART
1010200100102000,
1010200200102000,
11221122,
100000000000100000200000500000000000000008000000,
1010200100202000,
1010200200102000,
30304046,
000000000000000000000000000000000008000000000000, //36
0004,
22112000,
11221120,
10214000,
1010200100102000,
1010200200102000,
1122,
10211000, //44
#GOGOEND
3434,
600000000000000000000000000000000080000000000000,
0,
0, //48
#END

COURSE:Normal
LEVEL:3
BALLOON:11
SCOREINIT:7390
SCOREDIFF:0
#START
10101001,
02010000,
9009,
8,
1120,
10110000,
1120,
10110000, //8
500000000000000000000000000000000000000000000008,
0011,
1001001000000000,
2002002000000000,
1120,
10110000,
1120,
10110000, //16
500000000000000000000000000000000000000000000008,
0011,
500000000000000000000000000000000000000000000008,
0,
3003003000000010,
0110,
3003003000000020,
0220,
1001000010010000,
1001000010010000,
1110,
33300000, //28
#GOGOSTART
10101110,
20202220,
10102220,
500000000000000000000000000000000000000008000000,
10101110,
20202220,
30304046,
000000000000000000000000000000000008000000000000, //36
1114,
1114,
11101110,
10222000,
10101110,
20202220,
1122,
10011000, //44
#GOGOEND
3434,
600000000000000000000000000000000008000000000000,
0,
0, //48
#END

COURSE:Easy
LEVEL:2
BALLOON:9
SCOREINIT:12900
SCOREDIFF:0
#START
10001001,
00010000,
9009,
8,
11,
1,
11,
1, //8
500000000000000000000000000000000000000000000008,
01,
1,
2,
11,
1,
11,
1, //16
500000000000000000000000000000000000000000000008,
01,
500000000000000000000000000000000000000000000008,
0,
30030001,
02,
30030002,
01,
11,
11,
1110,
3300, //28
#GOGOSTART
1110,
2220,
1110,
500000000000000000000000000008000000000000000000,
1110,
2220,
30303006,
000000000000000000000000000008000000000000000000, //36
1004,
1004,
11,
1,
1110,
2220,
1110,
11, //44
#GOGOEND
3333,
600000000000000000000000000000000008000000000000,
0,
0, //48
#END
