//TJADB Project
TITLE:Dokidoki Mune-kyun Omatsuri Time
TITLEJA:ドキドキ胸きゅん おまつりタイム
SUBTITLE:--MOES feat. Namiko Hatakeyama
BPM:160
WAVE:Dokidoki Mune-kyun Omatsuri Time.ogg
OFFSET:-1.811
DEMOSTART:1.807

COURSE:Oni
LEVEL:9
BALLOON:6,10
SCOREINIT:480
SCOREDIFF:108
#START
1110101010010010,
1001107000008000,
1110101020021010,
1110101020021010,
1110101020021010,
100000000100000000500000000008000000400000000000,
1101101020021010,
1101101020021010,
1101101022022020,
1110201100400000,
1022102010221020,
1022102010002000,
00303005,
000000000000000000000000000000000008000000000000,
1022102010221020,
1022102030004000,
00303305,
000000000000000000000000000000000008000000000000,
1022102010221020,
1022102010102020,
00404005,
000000000000000000000000000000000008000000000000,
1022102010221020,
1022102030004000,
00404406,
000000000000000000000000000000000008000000000000,
#GOGOSTART
1110111020021020,
1110111020021020,
1110111020021020,
100000000100000000500000000008000000300000000000,
1110111020021010,
1110111020021010,
1110111020021010,
100000000100000000500000000008000000400000000000,
#GOGOEND
10101110,
1000101010222020,
10101110,
1000101010222220,
#GOGOSTART
1101101022022020,
1102201110222000,
1101101022022020,
1102201110222050,
000000000000000000000000000008000000200000500000,
000000000000000000000000000008000000200000500000,
000000000000000000000000000008000000400000600000,
000000000000000000000000000008000000400000600000,
000000000000000000000000000008000000400000600000,
000000000000000000000000000000000000000008000000,
33333333,
1111111111111111,
111111100000,
#GOGOEND
#BPMCHANGE 106
1110101010010010,
1001107000008000,
#BPMCHANGE 212
1110101020021010,
1110101020021010,
1110101020021010,
100000000100000000500000000008000000400000000000,
1101101020021010,
1101101020021010,
1101101022022020,
1110201100400000,
1022102010221020,
1022102010102020,
00303005,
000000000000000000000000000000000008000000000000,
1022102010221020,
1022102030004000,
00303305,
000000000000000000000000000000000008000000000000,
1022102010221020,
1022102010102020,
00404005,
000000000000000000000000000000000008000000000000,
1022102010221020,
1022102030004000,
00404406,
000000000000000000000000000000000008000000000000,
#GOGOSTART
1110111020021020,
1110111020021020,
1110111020021020,
100000000100000000500000000008000000300000000000,
1110111020021010,
1110111020021010,
1110111020021010,
100000000100000000500000000008000000400000000000,
#GOGOEND
10101110,
1000101010222020,
10101110,
1000101010222220,
#GOGOSTART
1101101022022020,
1102201110222000,
1101101022022020,
1102201110222050,
000000000000000000000000000008000000200000500000,
000000000000000000000000000008000000200000500000,
000000000000000000000000000008000000400000600000,
000000000000000000000000000008000000400000600000,
000000000000000000000000000008000000400000600000,
000000000000000000000000000000000000000008000000,
33333333,
1111111111111111,
#BPMCHANGE 160
#SCROLL 1.32
111111100000,
#GOGOEND
#END

COURSE:Hard
LEVEL:6
BALLOON:28,20
SCOREINIT:650
SCOREDIFF:140
#START
,
,
1010100020020000,
1010100020020000,
1010100020020010,
2002002000004000,
1000100020020000,
1000100020020000,
1010100020020020,
1000102200400000,
10110201,
01102020,
00404005,
000000000000000000000000000008000000000000000000,
00111011,
01102020,
00404405,
000000000000000000000000000008000000000000000000,
10110201,
01102020,
00404005,
000000000000000000000000000008000000000000000000,
00111011,
01102020,
00404406,
000000000000000000000000000008000000000000000000,//26
#GOGOSTART
1010100020020000,
1010100020020000,
1010100020020010,
2002002000003000,
1010100020020000,
1010100020020000,
1010100020020010,
2002002000004000,//34
#GOGOEND
1110,
0220,
1110,
0220,
#GOGOSTART
1010100010010010,
02200220,
1010100010010010,
02201025,
000000000000000000000000000008000000200000500000,
000000000000000000000000000008000000200000500000,
000000000000000000000000000008000000400000600000,
000000000000000000000000000008000000400000600000,
000000000000000000000000000008000000400000900000,
,
,
00090000,
8,
#BPMCHANGE 106
#GOGOEND
,
,
#BPMCHANGE 212
1010100020020000,
1010100020020000,
1010100020020010,
2002002000004000,
1000100020020000,
1000100020020000,
1010100020020020,
1000102200400000,
10110201,
01102020,
00404005,
000000000000000000000000000008000000000000000000,
00111011,
01102020,
00404405,
000000000000000000000000000008000000000000000000,
10110201,
01102020,
00404005,
000000000000000000000000000008000000000000000000,
00111011,
01102020,
00404406,
000000000000000000000000000008000000000000000000,
#GOGOSTART
1010100020020000,
1010100020020000,
1010100020020010,
2002002000003000,
1010100020020000,
1010100020020000,
1010100020020010,
2002002000004000,
#GOGOEND
1110,
0220,
1110,
0220,
#GOGOSTART
1010100010010010,
02200220,
1010100010010010,
02201025,
000000000000000000000000000008000000200000500000,
000000000000000000000000000008000000200000500000,
000000000000000000000000000008000000400000600000,
000000000000000000000000000008000000400000600000,
000000000000000000000000000008000000400000900000,
,
,
00090000,
#BPMCHANGE 160
#SCROLL 1.32
8,
#GOGOEND
,
,
,
#END

COURSE:Normal
LEVEL:6
BALLOON:25,15
SCOREINIT:750
SCOREDIFF:170
#START
,
,
11101000,
11101000,
11101000,
22,
1120,
1120,
1122,
1120,
11,
1122,
00404005,
000000000000000000000000000008000000000000000000,
0110,
1122,
00404005,
000000000000000000000000000008000000000000000000,
1110,
1122,
00404005,
000000000000000000000000000008000000000000000000,
0110,
1122,
00404006,
000000000000000000000000000008000000000000000000,//26
#GOGOSTART
11102000,
11102000,
11102000,
1022,
11102000,
11102000,
11102000,
1022,//34
#GOGOEND
11,
0220,
11,
0220,
#GOGOSTART
10101110,
10111000,
10101110,
10111005,
000000000000000000000000000000080000000000500000,
000000000000000000000000000000080000000000500000,
000000000000000000000000000000080000000000600000,
000000000000000000000000000000080000000000600000,
000000000000000000000000000000080000000000900000,
,
,
00090000,
8,
#BPMCHANGE 106
#GOGOEND
,
,
#BPMCHANGE 212
11101000,
11101000,
11101000,
22,
1120,
1120,
1122,
1120,
11,
1122,
00404005,
000000000000000000000000000008000000000000000000,
0110,
1122,
00404005,
000000000000000000000000000008000000000000000000,
1110,
1122,
00404005,
000000000000000000000000000008000000000000000000,
0110,
1122,
00404006,
000000000000000000000000000008000000000000000000,//26
#GOGOSTART
11102000,
11102000,
11102000,
1022,
11102000,
11102000,
11102000,
1022,//34
#GOGOEND
11,
0220,
11,
0220,
#GOGOSTART
10101110,
10111000,
10101110,
10111005,
000000000000000000000000000000080000000000500000,
000000000000000000000000000000080000000000500000,
000000000000000000000000000000080000000000600000,
000000000000000000000000000000080000000000600000,
000000000000000000000000000000080000000000900000,
,
,
00090000,
#BPMCHANGE 160
#SCROLL 1.32
8,
#GOGOEND
,
,
,
#END

COURSE:Easy
LEVEL:4
BALLOON:20,12
SCOREINIT:530
SCOREDIFF:90
#START
,
,
1110,
1110,
1110,
22,
1110,
1110,
1110,
22,
11,
1111,
00404005,
000000000000000000000000000008000000000000000000,
0110,
1111,
00404005,
000000000000000000000000000008000000000000000000,
1110,
1111,
00404005,
000000000000000000000000000008000000000000000000,
0110,
1111,
00404006,
000000000000000000000000000008000000000000000000,//26
#GOGOSTART
1110,
2220,
1110,
22,
1110,
2220,
1110,
22,//34
#GOGOEND
11,
0220,
11,
0220,
#GOGOSTART
1111,
0220,
1111,
00202005,
000000000000000000000000000000080000000000500000,
000000000000000000000000000000080000000000500000,
000000000000000000000000000000080000000000600000,
000000000000000000000000000000080000000000600000,
000000000000000000000000000000080000000000900000,
,
,
00090000,
8,
#BPMCHANGE 106
#GOGOEND
,
,
#BPMCHANGE 212
1110,
1110,
1110,
22,
1110,
1110,
1110,
22,
11,
1111,
00404005,
000000000000000000000000000008000000000000000000,
0110,
1111,
00404005,
000000000000000000000000000008000000000000000000,
1110,
1111,
00404005,
000000000000000000000000000008000000000000000000,
0110,
1111,
00404006,
000000000000000000000000000008000000000000000000,
#GOGOSTART
1110,
2220,
1110,
22,
1110,
2220,
1110,
22,
#GOGOEND
11,
0220,
11,
0220,
#GOGOSTART
1111,
0220,
1111,
00202005,
000000000000000000000000000000080000000000500000,
000000000000000000000000000000080000000000500000,
000000000000000000000000000000080000000000600000,
000000000000000000000000000000080000000000600000,
000000000000000000000000000000080000000000900000,
,
,
00090000,
#BPMCHANGE 160
#SCROLL 1.32
8,
#GOGOEND
,
,
,
#END
