// TJADB Project
TITLE:Kumo no Kanata no Taichi no Kaze
TITLEJA:雲の彼方の大地の風
SUBTITLE:--Shuuri Misaki (BNSI) feat. Yako from Danchinomiya
SUBTITLEJA:三崎修吏(BNSI) feat. 団地ノ宮弥子
BPM:130
WAVE:Kumo no Kanata no Taichi no Kaze.ogg
OFFSET:-1.91
DEMOSTART:38.8331 //shinuchi:
5980/3180/2260/1420

COURSE:Oni
LEVEL:9
BALLOON:21
SCOREINIT:510,1530
SCOREDIFF:123
#START
1103000020102210,
1101010300022022,
1001211010012212,
1222011211120203,
0000200221021001,
0000220201201021,
0000200221021001,
0000220201201021, //8
0220200102201201,
0220200102201201,
0210201022101201,
0202120204003003,
0201202221021221,
0220120212201021,
0220120212021012,
0201220221201021, //16
0201200222102021,
0220102102201021,
0010202101102021,
0110202101021222,
#GOGOSTART
100200000500000000000000000000000008000000100000,
100200000500000000000000000000000000008000000300,
0010200210010050,
000000000000000000000000008000000000200200100100, //24
#GOGOEND
1201001022010211,
1201002022010121,
1010101010010050,
000000000000000000000000000000000000000008000000,
20202020101110201011101010200030, //29
0000120220102210,
#GOGOSTART
3000300300102201,
#GOGOEND
0000220201112210,
#GOGOSTART
3000300302111222,
#GOGOEND
2100200100400300,
40001110200000300000100022101000, //35
1001012210010122,
1001012210010122,
1201012212010122,
1201012030030030,
2022010010202022,
10202020101110201010102010002010,
0220010110020220,
101010200200100200100200200000101010200000100010, //43
1222
#GOGOSTART
120302111020,
1203000100102203,
0010200012010010,
2212203000122211,
#GOGOEND
1202201022012011,
1202201022012111,
1010101010010050,
000000000000000008000000600000000000008000000700,
00000008,
20202020101110201011101010200030, //53
0000220220001020,
#GOGOSTART
3000300300102201,
#GOGOEND
0000120212221210,
#GOGOSTART
3000300300121222,
#GOGOEND
0100200030040030,
00400011102000300000100022101010,
1021012210210122,
1021012210210122,
1221012212210122,
1221022030030030, //63
#GOGOSTART
600000000000000000000000000000000000000008000000,
1101010302022203,
0010221012212210,
1102020302201103,
0010202212212212,
1101020302112203,
0110210101012101,
0202210220020303,
#GOGOEND
0,
0, //73
#END

COURSE:Hard
LEVEL:6
BALLOON:9,15,16
SCOREINIT:600,2660
SCOREDIFF:153
#START
100100000600000000000000000000000000000008000000,
1101010300020020,
1002201010002201,
1011020110110103,
0000200020021001,
0000220200202021,
0000200022021001,
0000220200202011, //8
0000200100201101,
0000200100201101,
0010201020001107,
0000008004003003,
0000200020021001,
0000220200202021,
0000200021003003,
0000220200202011, //16
0000200100102022,
0000101100002001,
0010201100102001,
0010200100001000,
#GOGOSTART
100100000500000000000000000000000008000000100000,
100100000500000000000000000000000000008000000000,
0000200010010050,
000000000000080000000000, //24
#GOGOEND
1103000022030000,
1103001022040000,
0010101010010090,
000000000000000000000000090000000000800000000000,
0000000000001103, //29
0000220200102000,
#GOGOSTART
3000300300002201,
#GOGOEND
0000220200102000,
#GOGOSTART
3000300300001111,
#GOGOEND
0100200100400300,
4001020300202010, //35
1001002010010020,
1001002010010020,
2001002020010020,
2001002030030030,
2002010010002022,
0222200200201011,
0220010220010220,
0000220200202022, //43
000000000000
#GOGOSTART
100100000500000000000008000000100000,
100100000500000000000000000000000000008000000000,
0000200010010050,
000000000000080000000000,
#GOGOEND
1103000022030000,
1103001022040000,
0010101010010050,
000000000000000008000000600000000000008000000900,
000000000000090000800000,
0000000000001103, //53
0000220200001020,
#GOGOSTART
3000300300002201,
#GOGOEND
0000220200001020,
#GOGOSTART
3000300300002222,
#GOGOEND
0100200030040030,
0401020300201020,
1001002010010020,
1001002010010020,
2001002020010020,
2002002030030030, //63
#GOGOSTART
600000000000000000000000000000000000000008000000,
1101010300000003,
0000222010010010,
1101010300001103,
0010202010010010,
1101010300000003,
0000220100002201,
0202001020020303,
#GOGOEND
0,
0, //73
#END

COURSE:Normal
LEVEL:5
BALLOON:5,10,12,10
SCOREINIT:640,4000
SCOREDIFF:170
#START
100000000600000000000000000000000000000008000000,
1001010300000000,
10211020,
1000000010100103,
0000200000001001,
0000200000002001,
0000200000001001,
0000200000002001, //8
0000200000201001,
0000200000201001,
0000200010002007,
0000008004003003,
0000200020002001,
0000200200202001,
0000200003003003,
0000200200202001, //16
0000200000201001,
0000100100000001,
0000100100001001,
0000100100001000,
#GOGOSTART
100000000500000000000000000000000008000000100000,
100000000500000000000000000000000000008000000000,
0000200010010050,
000000000000080000000000, //24
#GOGOEND
1003000020040000,
1003000020040000,
0010101010010090,
000000000000000000000000090000000000800000000000,
0000000000002003, //29
0000200200202000,
#GOGOSTART
3000300300002001,
#GOGOEND
0000200200202000,
#GOGOSTART
3000300300000001,
#GOGOEND
0100200100400300,
4001010300002000, //35
1001000010010000,
1001000010010000,
2001000020010000,
2001000030030070,
0,
8000200200201001,
0010010010020020,
0000200200202002, //43
000000000000
#GOGOSTART
100000000500000000000008000000100000,
100000000500000000000000000000000000008000000000,
0000200010010050,
000000000000080000000000,
#GOGOEND
1003000020040000,
1003000020040000,
0010101010010050,
000000000000000008000000600000000000008000000900,
000000000000090000800000,
0000000000000003, //53
0000200200001000,
#GOGOSTART
3000300300002001,
#GOGOEND
0000200200001000,
#GOGOSTART
3000300300000001,
#GOGOEND
0100200030040030,
0401010300002000,
1001000010010000,
1001000010010000,
2001000020010000,
2002000030030030, //63
#GOGOSTART
600000000000000000000000000000000000000008000000,
1001010300000003,
0000200010010000,
1001010300001003,
0000200010010000,
1001010300000003,
0000200100002001,
0101001020020303,
#GOGOEND
0,
0, //73
#END

COURSE:Easy
LEVEL:4
BALLOON:4,4,8,4,8,15,10,7,15,4,4,4
SCOREINIT:750,8130
SCOREDIFF:190
#START
100000000600000000000000000000000000000008000000,
7000000800000000,
1210,
100000000000000000000000700000000000000000000008,
0000000000002002,
0000000000000002,
0000000000002002,
0000000000000001, //8
0000000000001001,
0000000000001001,
0000000010001007,
0000000000000008,
0000200000002002,
0000200000000002,
000000000000000000000000000700000000000000000008,
0000200000002001, //16
0000000000001001,
0000100100000001,
0000000100000001,
0000000100001000,
#GOGOSTART
500000000000000000000000000000000008000000000000,
500000000000000000080000,
0000100010010050,
000000000000080000000000, //24
#GOGOEND
34,
34,
0010000010010090,
000000000000000000000000090000000000800000000000,
0000000000000003, //29
0202,
#GOGOSTART
3000300300000001,
#GOGOEND
0202,
#GOGOSTART
3000300300000000,
#GOGOEND
7,
00000800, //35
11,
11,
1001000010010000,
1001000030000070,
0,
8000000000000001,
0000010000020000,
0000200200002002, //43
000000000000
#GOGOSTART
500000000000000000000008000000000000,
500000000000000000080000,
0000100010010050,
000000000000080000000000,
#GOGOEND
34,
34,
0010000010010050,
000000000000000008000000600000000000008000000900,
000000000000090000800000,
0000000000000003, //53
0201,
#GOGOSTART
3000300300000001,
#GOGOEND
0201,
#GOGOSTART
3000300300000000,
#GOGOEND
7,
00000800,
11,
11,
1001000010010000,
1001000030000000, //63
#GOGOSTART
600000000000000000000000000000000000000008000000,
7000000800000003,
0110,
7000000800000003,
0011,
7000000800000003,
0000100100001001,
0000000010000303,
#GOGOEND
0,
0, //73
#END
