//TJADB Project
TITLE:Nanairo Harmony
TITLEJA:七色ハーモニー
SUBTITLE:--Masako Oogami feat. Asami Imai
SUBTITLEJA:「めっちゃ!太鼓の達人DS 7つの島の大冒険」より
BPM:145
WAVE:Nanairo Harmony.ogg
OFFSET:-1.862
DEMOSTART:2.222

COURSE:Oni
LEVEL:8
BALLOON:18,20
SCOREINIT:570
SCOREDIFF:158
#START
#GOGOSTART
#SCROLL 1.07
4333,
3011202010102010,
0022102210221022,
1011201120112011,
2333,
3011202110102020,
1011202110102000,
1011202010102222,
1022203000121000,
1011202010102010,
0022102210221022,
1011201120112011,
2444,
40330304,
0012100000000000,
10210100,
#GOGOEND
4000302110201020,
1212,
1000202010112020,
10101100,
4000000020201120,
1020102010102220,
12121122,
1022201022201020,
1010222020112020,
1020102010102220,
12112020,
7,
8000101011112020,
1010202110102020,
1010202110102020,
7,
8000102210201020,
1010202110102020,
1010202110102020,
1022201022201020,
1033,
41121221,
1020122210201120,
21121221,
1020112011211122,
21121221,
1020111210102222,
1022201000100022,
13,
4000000030001111,
#GOGOSTART
1011202010102010,
0022102210221022,
1011201120112011,
2333,
3011202110102020,
1011202110102020,
3022203000121020,
3022203000212000,
1022202010102010,
0022102210221022,
1011201120112011,
2444,
40330304,
0012100000000000,
10210100,
4333,
3022201020102040,
0012100000000000,
1011102000101040,
#GOGOEND
#END

COURSE:Hard
LEVEL:5
BALLOON:15,14,10
SCOREINIT:780
SCOREDIFF:238
#START
#GOGOSTART
#SCROLL 1.07
0333,
30201121,
0111,
500000000000000000000000000000000000000000000008,
0333,
30201120,
10201120,
10221120,
1000201000111000,
10201121,
0212,
500000000000000000000000000000000000000000000008,
0444,
40330304,
0011100000000000,
10210100,
#GOGOEND
40001212,
1212,
10221120,
10101100,
4,
10101120,
10101120,
1212,
1122,
10101120,
10111010,
7,
8,
10101122,
10101212,
9,
8,
10101122,
10101212,
10101122,
1,
01121002,
21200000,
01121002,
21200000,
01121222,
21221212,
10110100,
13,
33,
#GOGOSTART
10201121,
0111,
600000000000000000000000000000000000000000000008,
0333,
30201120,
10201120,
1000201000111000,
1000201000222000,
10201121,
0212,
600000000000000000000000000000000000000000000008,
0444,
40330304,
0011100000000000,
10210100,
4333,
30210104,
0011100000000090,
0008,
0,
#GOGOEND
0,
0,
#END

COURSE:1
LEVEL:4
BALLOON:6,10,9,8
SCOREINIT:880
SCOREDIFF:298
#START
#SCROLL 1.07
#GOGOSTART
0,
10101111,
0111,
500000000000000000000000000000000000000000000008,
0,
10101110,
10101110,
7008,
10030000,
10101111,
0222,
500000000000000000000000000000000000000000000008,
0111,
10100004,
0,
10010100,
#GOGOEND
4,
1111,
1120,
1110,
4,
1110,
1110,
1120,
1120,
1110,
1110,
7,
8,
1112,
1122,
9,
8,
1112,
1122,
500000000000000000000000000000000008000000000000,
3,
01111001,
11100000,
02222002,
22200000,
01111001,
11100000,
10010100,
13,
33,
#GOGOSTART
10101111,
0111,
600000000000000000000000000000000000000000000008,
0111,
10101110,
10101110,
10020000,
30040000,
10101111,
0222,
600000000000000000000000000000000000000000000008,
0111,
10100004,
0,
10010100,
4333,
30300004,
00000009,
0008,
0,
#GOGOEND
0,
0,
#END

COURSE:0
LEVEL:3
BALLOON:5,7,6,7,8,7
SCOREINIT:870
SCOREDIFF:398
#START
#SCROLL 1.07
#GOGOSTART
0,
1210,
1210,
500000000000000000000000000000000000000008000000,
0,
1120,
1120,
7008,
10030000,
1210,
1210,
500000000000000000000000000000000000000008000000,
0111,
10000004,
00000005,
000000000000000000000000000000000000000000000008,
#GOGOEND
0,
11,
1120,
11,
4,
1110,
1110,
12,
12,
1110,
1110,
7,
8,
11,
1111,
500000000000000000000000000000000000000000000008,
0,
11,
1111,
500000000000000000000000000008000000000000000000,
3,
9,
8,
9,
8,
9,
8,
10010100,
13,
33,
#GOGOSTART
1210,
1210,
600000000000000000000000000000000000000008000000,
0,
1120,
1120,
10010000,
30030000,
1210,
1210,
600000000000000000000000000000000000000008000000,
0111,
10000004,
00000005,
000000000000000000000000000000000000000008000000,
0333,
30000004,
00000009,
0008,
0,
#GOGOEND
0,
0,
#END
