//TJADB Project
TITLE:Amefuri no Rondo
TITLEJA:あめふりのロンド
SUBTITLE:--Rissyuu feat. Choco/Synchronica
SUBTITLEJA:立秋 feat. ちょこ 「シンクロニカ」より
BPM:210
WAVE:Amefuri no Rondo.ogg
OFFSET:-0.604
DEMOSTART:73.707

COURSE:Edit
LEVEL:10
BALLOON:2
SCOREINIT:1120
SCOREDIFF:0
#START
#MEASURE 5/4
#SCROLL 0.75
102202202202202,
#MEASURE 6/4
102202202202202202,
#MEASURE 5/4
102202202202202,
#MEASURE 6/4
102202202202202202, //4
#MEASURE 5/4
102202100100202,
#MEASURE 6/4
200020100020200020100022100000100020,
#MEASURE 5/4
100020200020100000100000200022,
#MEASURE 6/4
200020100020200020100022100000100020, //8
#MEASURE 5/4
100020200020100000100000200022,
#MEASURE 6/4
100000100020200020100022100000100020,
#MEASURE 5/4
100020200020100000100000200022,
#MEASURE 6/4
100000200020200020100022100020100020, //12
#MEASURE 5/4
#SCROLL 1
100100102100100,
#MEASURE 6/4
100100102102102102,
#MEASURE 5/4
111111111111111,
#MEASURE 3/4
111111111111111110,
#BARLINEOFF
#SCROLL 1.5
4, //17
#BARLINEON
#MEASURE 5/4
#SCROLL 1
#GOGOSTART
30002000200011222220,
300201201100101,
100000000000200000001000200000001000500000000000000008000000,
300000200010200011100000100000, //21
300000200000200000222222222220,
300000200010200010100000100010,
100000200010200010111100111100,
#MEASURE 6/4
300000200010200011202020202000400020, //25
#MEASURE 5/4
30002000200011222220,
300000200010200010100000100010,
100000200010200010300000300111,
100000200010200011100000100000, //29
300000200000201010222222222200,
300201201100101,
102222222010200010111020111020,
#MEASURE 6/4
300000200010200011100010200020100020, //33
#GOGOEND
#MEASURE 5/4
#SCROLL 0.75
102202100100202,
#MEASURE 6/4
200020100020200020100022100000100020,
#MEASURE 5/4
100020200020100000100000200022,
#MEASURE 6/4
200020200020200020100020100000122000, //37
#MEASURE 5/4
102202100100202,
#MEASURE 6/4
200020100020200020100022100000100020,
#MEASURE 5/4
100020200020100000100000200022,
#MEASURE 4/4
200020100020200022100000, //41
#MEASURE 5/4
300020200020100020100020200022,
#MEASURE 6/4
100020100020200020100022100020100020,
#MEASURE 5/4
100020200020100020100020200022,
#MEASURE 6/4
100020200020200020100022100020100020, //45
#MEASURE 5/4
#SCROLL 1
100100102100100,
#MEASURE 6/4
100100102102102101,
#MEASURE 5/4
211211211211211,
#MEASURE 3/4
111111111111111110,
#BARLINEOFF
#SCROLL 1.5
4, //50
#BARLINEON
#MEASURE 5/4
#SCROLL 1
#GOGOSTART
11102020101022201010,
20201110202010102220,
10102020111020201010,
400000222200200000100222222200, //54
10112020101020221010,
20201011202010102022,
10102020101120201010,
400222200200100100222222111100, //58
10201010102010221010,
10201002101010201020,
100100100011100200100100100200,
100000200200200000200000200000200000100000201000200000100000, //62
1211121211,
10221020101011111011,
11111111111111111111,
#MEASURE 3/4
111111111111111111111111,
#GOGOEND
1, //67
#MEASURE 5/4
#GOGOSTART
300000000000200000000000200000000000100100200200200200002000,
300201201100101,
100000000000200000001000200000001000500008000000200000002000,
300000200010200011100000100000, //71
300000200000200000222222222220,
300201201100101,
100000200010200010111100111100,
#MEASURE 6/4
300000200010200111200000200000200000, //75
#GOGOEND
#MEASURE 5/4
#SCROLL 0.75
102202202202202,
#MEASURE 6/4
102202202202202202,
#MEASURE 5/4
102202202202202,
#MEASURE 6/4
102202202202202202, //79
#MEASURE 5/4
102202100100202,
#MEASURE 6/4
200020100020200020100022100000100020,
#MEASURE 5/4
102202100100202,
200020200020200020200020222220,
#MEASURE 4/4
7800, //84
#END

COURSE:Oni
LEVEL:8
BALLOON:2,2,12,16
SCOREINIT:1880
SCOREDIFF:0
#START
#MEASURE 5/4
#SCROLL 0.75
2,
#MEASURE 6/4
2,
#MEASURE 5/4
2,
#MEASURE 6/4
2, //4
#MEASURE 5/4
100202100200000,
#MEASURE 6/4
200000100000200020100022200000200000,
#MEASURE 5/4
100202100500000,
#MEASURE 6/4
000000000000000000000000000000000008000000002020200000000000200000000000, //8
#MEASURE 5/4
300202100200100,
#MEASURE 6/4
200000100000200020100022100000200000,
#MEASURE 5/4
100202100500000,
#MEASURE 6/4
000000000000000000000008000000000000200000000000200000001000200000000000, //12
#MEASURE 5/4
300100102100100,
#MEASURE 6/4
100100102100102102,
#MEASURE 5/4
111111111111111,
#MEASURE 3/4
#SCROLL 1
500000000000000000000000000008000000,
#BARLINEOFF
#SCROLL 1.5
4, //17
#BARLINEON
#MEASURE 5/4
#SCROLL 1
#GOGOSTART
30002000200011222000,
300200200100101,
100000000000200000000000200000000000500000000000000008000000,
300000200000200011100000100000, //21
300200200222222,
300200200100101,
100000000000200000000000200000000000500008000000500008000000,
#MEASURE 6/4
300200200222200402, //25
#MEASURE 5/4
30002000200011222000,
300201201100101,
100000200010200010700800700800,
300000200010200011100000100000, //29
30002000200022222000,
300201201100101,
100201201112112,
#MEASURE 6/4
300000200010200011100000000000000000, //33
#GOGOEND
#MEASURE 5/4
#SCROLL 0.75
100202100200200,
#MEASURE 6/4
200100202102200202,
#MEASURE 5/4
100202100500000,
#MEASURE 6/4
000000000000000000000008000000000000200000000000200000000000202020000000, //37
#MEASURE 5/4
100202100200200,
#MEASURE 6/4
200000100000200020100022200000200020,
#MEASURE 5/4
100202100500000,
#MEASURE 4/4
000000000000000000000000000008000000100000000000, //41
#MEASURE 5/4
302202100200102,
#MEASURE 6/4
200102202100200102,
#MEASURE 5/4
102202100200102,
#MEASURE 6/4
200102202100200102, //45
#MEASURE 5/4
100100102100100,
#MEASURE 6/4
100100102102102102,
#MEASURE 5/4
111111111111111,
#MEASURE 3/4
#SCROLL 1
111010101010101010,
#BARLINEOFF
#SCROLL 1.5
4, //50
#BARLINEON
#MEASURE 5/4
#SCROLL 1
#GOGOSTART
10002000111020001000,
22201000200011102000,
10002220100020001110,
500000000000000000000000000000000008000000000000000000000000, //54
20001000222010002000,
11102000100022201000,
20001110200010002220,
500000000000000000000000000000000008000000000000000000000000, //58
10102020111020201010,
22201010202011102020,
10102220101020201110,
500000000000000000000000000000000008000000000000000000000000, //62
10111010101020222020,
20201011101010101011,
11111111222222222222,
#MEASURE 3/4
700000000000000000000000000000000008,
#GOGOEND
0, //67
#MEASURE 5/4
#GOGOSTART
300000000000200000000000200000000000100100200200200000002000,
300201201100101,
100000000000200000001000200000001000500000000000000008000000,
300000200010200011100000100000, //71
300200200222222,
300201201100101,
100000000000200000001000200000001000500008000000500008000000,
#MEASURE 6/4
311222, //75
#GOGOEND
#MEASURE 5/4
#SCROLL 0.75
2,
#MEASURE 6/4
2,
#MEASURE 5/4
2,
#MEASURE 6/4
2, //79
#MEASURE 5/4
100202100200000,
#MEASURE 6/4
200100202100200200,
#MEASURE 5/4
100202100700000,
00080,
#MEASURE 4/4
2, //84
#END

COURSE:Hard
LEVEL:6
BALLOON:2,2,8,14
SCOREINIT:3060
SCOREDIFF:0
#START
#MEASURE 5/4
#SCROLL 0.75
0,
#MEASURE 6/4
0,
#MEASURE 5/4
0,
#MEASURE 6/4
0, //4
#MEASURE 5/4
10210,
#MEASURE 6/4
010212,
#MEASURE 5/4
10250,
#MEASURE 6/4
000000000000000000000000000000000008000000000000200000000000200000000000, //8
#MEASURE 5/4
30212,
#MEASURE 6/4
210212,
#MEASURE 5/4
10250,
#MEASURE 6/4
000000000000000000000008000000000000200000000000200000000000200000000000, //12
#MEASURE 5/4
31112,
#MEASURE 6/4
111112,
#MEASURE 5/4
111100100500000,
#BARLINEOFF
#MEASURE 3/4
000000000000000000000000000000000008,
#BARLINEON
#SCROLL 1.5
0, //17
#MEASURE 5/4
#SCROLL 1
#GOGOSTART
300200200222200,
300200200100101,
100000000000200000000000200000000000500000000000000008000000,
300200201100100, //21
300200200222200,
300200200100101,
100000000000200000000000200000000000500008000000500008000000,
#MEASURE 6/4
300200200222200400, //25
#MEASURE 5/4
30002000200011102000,
300200200100101,
1020207878,
300200201100100, //29
300200200222200,
300200200100101,
100000000000200000000000200000000000500000000000000008000000,
#MEASURE 6/4
300200201100000000, //33
#GOGOEND
#MEASURE 5/4
#SCROLL 0.75
10210,
#MEASURE 6/4
010212,
#MEASURE 5/4
10250,
#MEASURE 6/4
000000000000000000000008000000000000200000000000200000000000200000000000, //37
#MEASURE 5/4
10210,
#MEASURE 6/4
010212,
#MEASURE 5/4
10250,
#MEASURE 4/4
000000000000000000000000000000000008000000000000, //41
#MEASURE 5/4
300000200100202,
#MEASURE 6/4
200100000200100202,
#MEASURE 5/4
10250,
#MEASURE 6/4
000000000000000000000008000000000000200000000000200000000000200000000000, //45
#MEASURE 5/4
300100100100202,
#MEASURE 6/4
111112,
#MEASURE 5/4
111100100222205,
#BARLINEOFF
#MEASURE 3/4
000000000000000000000000000000000008,
#BARLINEON
#SCROLL 1.5
0, //50
#MEASURE 5/4
#SCROLL 1
#GOGOSTART
3022203022,
2030222030,
2220304030,
500000000000000000000000000000000008000000000000000000000000, //54
4011104011,
1040111040,
1110403040,
500000000000000000000000000000000008000000000000000000000000, //58
3011104022,
2030111040,
2220304030,
500000000000000000000000000000000008000000000000000000000000, //62
3011204022,
1030112040,
2210403040,
#MEASURE 3/4
700000000000000000000000000000000008,
#GOGOEND
0, //67
#MEASURE 5/4
#GOGOSTART
300200200222200,
300200200100101,
100000000000200000000000200000000000500000000000000008000000,
300200201100100, //71
300200200222200,
300200200100101,
100000000000200000000000200000000000500008000000500008000000,
#MEASURE 6/4
311222, //75
#GOGOEND
#MEASURE 5/4
#SCROLL 0.75
2,
#MEASURE 6/4
2,
#MEASURE 5/4
2,
#MEASURE 6/4
2, //79
#MEASURE 5/4
10110,
#MEASURE 6/4
010111,
#MEASURE 5/4
10170,
00080,
#MEASURE 4/4
2, //84
#END

COURSE:Normal
LEVEL:4
BALLOON:6,10
SCOREINIT:4440
SCOREDIFF:0
#START
#MEASURE 5/4
#SCROLL 0.75
0,
#MEASURE 6/4
0,
#MEASURE 5/4
0,
#MEASURE 6/4
0, //4
#MEASURE 5/4
10110,
#MEASURE 6/4
010111,
#MEASURE 5/4
10150,
#MEASURE 6/4
000000000000000000000000000000000000000008000000000000000000000000000000, //8
#MEASURE 5/4
30110,
#MEASURE 6/4
010111,
#MEASURE 5/4
10150,
#MEASURE 6/4
000000000000000000000008000000000000100000000000100000000000100000000000, //12
#MEASURE 5/4
30110,
#MEASURE 6/4
010111,
#MEASURE 5/4
10150,
#BARLINEOFF
#MEASURE 3/4
000000000000000000000000000000000008,
#BARLINEON
#SCROLL 1.5
0, //17
#MEASURE 5/4
#SCROLL 1
#GOGOSTART
30120,
30112,
30110,
30111, //21
30120,
30112,
30110,
#MEASURE 6/4
300000000000000000000000100000000000500000000000000008000000400000000000, //25
#MEASURE 5/4
30120,
30112,
30110,
30111, //29
30120,
30112,
30110,
#MEASURE 6/4
301000, //33
#GOGOEND
#MEASURE 5/4
#SCROLL 0.75
10210,
#MEASURE 6/4
010211,
#MEASURE 5/4
10250,
#MEASURE 6/4
000000000000000000000008000000000000200000000000200000000000200000000000, //37
#MEASURE 5/4
10210,
#MEASURE 6/4
010211,
#MEASURE 5/4
10250,
#MEASURE 4/4
000000000000000000000000000008000000000000000000, //41
#MEASURE 5/4
30210,
#MEASURE 6/4
010212,
#MEASURE 5/4
10250,
#MEASURE 6/4
000000000000000000000008000000000000200000000000200000000000200000000000, //45
#MEASURE 5/4
30210,
#MEASURE 6/4
010212,
#MEASURE 5/4
100000100200005,
#BARLINEOFF
#MEASURE 3/4
000000000000000000000000000000000008,
#BARLINEON
#SCROLL 1.5
0, //50
#MEASURE 5/4
#SCROLL 1
#GOGOSTART
32232,
23223,
22333,
600000000000000000000000000000000008000000000000000000000000, //54
41141,
14114,
11444,
600000000000000000000000000000000008000000000000000000000000, //58
31142,
23114,
22333,
600000000000000000000000000000000008000000000000000000000000, //62
42231,
14223,
11444,
#MEASURE 3/4
700000000000000000000000000000000008,
#GOGOEND
0, //67
#MEASURE 5/4
#GOGOSTART
30120,
30112,
30110,
300000000000000000000000100000000000500000000000000008000000, //71
30120,
30112,
30110,
#MEASURE 6/4
301222, //75
#GOGOEND
#MEASURE 5/4
#SCROLL 0.75
0,
#MEASURE 6/4
0,
#MEASURE 5/4
0,
#MEASURE 6/4
0, //79
#MEASURE 5/4
10110,
#MEASURE 6/4
010111,
#MEASURE 5/4
10170,
00080,
#MEASURE 4/4
2, //84
#END

COURSE:Easy
LEVEL:3
BALLOON:5,8
SCOREINIT:8000
SCOREDIFF:0
#START
#MEASURE 5/4
#SCROLL 0.75
0,
#MEASURE 6/4
0,
#MEASURE 5/4
0,
#MEASURE 6/4
0, //4
#MEASURE 5/4
10010,
#MEASURE 6/4
010010,
#MEASURE 5/4
10050,
#MEASURE 6/4
000000000000000000000000000000000000000008000000000000000000000000000000, //8
#MEASURE 5/4
30010,
#MEASURE 6/4
010010,
#MEASURE 5/4
10050,
#MEASURE 6/4
000000000000000000000008000000000000000000000000000000000000000000000000, //12
#MEASURE 5/4
30010,
#MEASURE 6/4
010010,
#MEASURE 5/4
10050,
#BARLINEOFF
#MEASURE 3/4
000000000000000000000000000000000008,
#BARLINEON
#SCROLL 1.5
0, //17
#MEASURE 5/4
#SCROLL 1
#GOGOSTART
30020,
30030,
30010,
30030, //21
30020,
30030,
30010,
#MEASURE 6/4
300000000000000000000000000000000000500000000000000008000000000000000000, //25
#MEASURE 5/4
30020,
30030,
30010,
30030, //29
30020,
30030,
30010,
#MEASURE 6/4
3, //33
#GOGOEND
#MEASURE 5/4
#SCROLL 0.75
10010,
#MEASURE 6/4
010010,
#MEASURE 5/4
10050,
#MEASURE 6/4
000000000000000000000008000000000000000000000000000000000000000000000000, //37
#MEASURE 5/4
10010,
#MEASURE 6/4
010010,
#MEASURE 5/4
10050,
#MEASURE 4/4
000000000000000000000000000008000000000000000000, //41
#MEASURE 5/4
30010,
#MEASURE 6/4
010010,
#MEASURE 5/4
10050,
#MEASURE 6/4
000000000000000000000008000000000000000000000000000000000000000000000000, //45
#MEASURE 5/4
30010,
#MEASURE 6/4
010010,
#MEASURE 5/4
100000000100005,
#BARLINEOFF
#MEASURE 3/4
000000000000000000000000000000000008,
#BARLINEON
#SCROLL 1.5
0, //50
#MEASURE 5/4
#SCROLL 1
#GOGOSTART
30030,
03003,
00333,
600000000000000000000000000000000008000000000000000000000000, //54
40040,
04004,
00444,
600000000000000000000000000000000008000000000000000000000000, //58
10110,
11011,
01333,
600000000000000000000000000000000008000000000000000000000000, //62
10110,
11011,
01333,
#MEASURE 3/4
700000000000000000000000000000000008,
#GOGOEND
0, //67
#MEASURE 5/4
#GOGOSTART
30020,
30030,
30010,
30030, //71
30020,
30030,
30020,
#MEASURE 6/4
33, //75
#GOGOEND
#MEASURE 5/4
#SCROLL 0.75
0,
#MEASURE 6/4
0,
#MEASURE 5/4
0,
#MEASURE 6/4
0, //79
#MEASURE 5/4
10010,
#MEASURE 6/4
010010,
#MEASURE 5/4
10070,
00080,
#MEASURE 4/4
2, //84
#END
