//TJADB Project
TITLE:Bling-Bang-Bang-Born
TITLEJA:Bling-Bang-Bang-Born
SUBTITLE:--Creepy Nuts/Mashle -Magic and Muscles-
SUBTITLEJA:TVアニメ「マッシュル-MASHLE- 神覚者候補選抜試験編」より
BPM:157
WAVE:Bling-Bang-Bang-Born.ogg
OFFSET:-1.666
DEMOSTART:63.7679 //shinuchi:
6570/4140/2800/1810

COURSE:Oni
LEVEL:8
BALLOON:2
SCOREINIT:600,1890
SCOREDIFF:158
#START
500000000000000000000000000000000008000000000000,
1020102012212010,
1020102212212010,
1022122012212012,
1022122012212010,
1000122012212210,
1000122212212210,
1220122012212010,
1220222220222220, //9
1002102210202011,
1002102210202011,
1022111010221110,
1022102210221000,
1002201210202022,
1002101210202022,
1002201210202012,
1002101030222020, //17
1011122010202211,
1012122010202211,
1011122010202211,
1012122010202211,
#MEASURE 8/4
#BPMCHANGE 314
#SCROLL 0.5
20002020202010002000000011000000,
00000000110000000000000011001010,
#MEASURE 4/4
#BPMCHANGE 157
#SCROLL 1
2012021012021111,
2021012210202011, //25
1022111010212021,
1022111010202211,
1022111010112211,
1011222010202210,
1022111010121012,
1022222030030030,
1021201210212010,
1022112020001000, //33
22212221,
22202022,
10221010,
500000000000000000000000000000000008000000000000,
22212211,
22202022,
10221010,
30000222, //41
#MEASURE 8/4
#BPMCHANGE 314
#SCROLL 0.5
#GOGOSTART
11000020100020001100002010002000,
11000020100020001000202010002000,
11000020100020001100002010002000,
11000020100020001000202010002000,
11000020100020001100002010002000,
11000020100020001000000020002000,
#MEASURE 4/4
#BPMCHANGE 157
#SCROLL 1
1002202010011020,
30000220, //49
4010401022010122,
11221440,
4010401022010122,
12211330,
4010401022010122,
11221440,
4010401022010122,
12211330, //57
#GOGOEND
0,
7800,
0, //60
#END

COURSE:Hard
LEVEL:6
BALLOON:
SCOREINIT:690,2910
SCOREDIFF:203
#START
500000000000000000000000000000000008000000000000,
1020102010010010,
1020102010010010,
1020102010010010,
1020102010010010,
1000102010010010,
1000102010010010,
1020102010010010,
1, //9
1001001000202000,
1001001000202000,
11220122,
12121210,
10011220,
1001001010202000,
10011220,
1001001030000000, //17
1011101010002000,
1011101010002000,
1011101010002000,
1011101010002000,
#MEASURE 8/4
#BPMCHANGE 314
#SCROLL 0.5
2022202020001000,
00100022,
#MEASURE 4/4
#BPMCHANGE 157
#SCROLL 1
1011011010002020,
1011011010000000, //25
1011101010002000,
1011101010002000,
1011101010002000,
1011101010202000,
1011101010001010,
1022202030030030,
1011100010111000,
1011101010001000, //33
22202220,
22202022,
10221010,
500000000000000000000000000000000008000000000000,
22202220,
22202022,
10221010,
30000222, //41
#MEASURE 8/4
#BPMCHANGE 314
#SCROLL 0.5
#GOGOSTART
1001102010011020,
1001102010202000,
1001102010011020,
1001102010202000,
1001102010011020,
1001102010002020,
#MEASURE 4/4
#BPMCHANGE 157
#SCROLL 1
10221010,
30000220, //49
4000400022020110,
11221000,
4000400022020110,
12211000,
4000400022020110,
11221000,
4000400022020110,
12211000, //57
#GOGOEND
0,
500008000000000000000000000000000000000000000000,
0, //60
#END

COURSE:Normal
LEVEL:5
BALLOON:
SCOREINIT:780,4360
SCOREDIFF:250
#START
500000000000000000000000000000000008000000000000,
10101001,
10101001,
10101001,
10101001,
10101001,
10101001,
10101001,
1, //9
1001001000202000,
1001001000202000,
10110011,
1111,
10011020,
1001001010002000,
10011020,
1001001030000000, //17
10111000,
10111000,
10111000,
10111000,
#MEASURE 8/4
#BPMCHANGE 314
#SCROLL 0.5
20222010,
00100020,
#MEASURE 4/4
#BPMCHANGE 157
#SCROLL 1
1001001010000000,
1001001010000000, //25
10111020,
10111020,
10111020,
10111000,
10111011,
1230,
11101110,
11102000, //33
2222,
22202020,
1211,
500000000000000000000000000000000008000000000000,
2222,
22202020,
1211,
30000220, //41
#MEASURE 8/4
#BPMCHANGE 314
#SCROLL 0.5
#GOGOSTART
1001001010010010,
1001001010000000,
1001001010010010,
1001001010000000,
1001001010010010,
1001001010002000,
#MEASURE 4/4
#BPMCHANGE 157
#SCROLL 1
1211,
3, //49
4410,
11102000,
4410,
11111000,
4410,
11102000,
4410,
11111000, //57
#GOGOEND
0,
500008000000000000000000000000000000000000000000,
0, //60
#END

COURSE:Easy
LEVEL:3
BALLOON:
SCOREINIT:690,7510
SCOREDIFF:295
#START
500000000000000000000000000008000000000000000000,
1110,
1110,
1110,
1110,
1110,
1110,
1110,
1, //9
11,
11,
11,
1110,
1,
11,
1,
13, //17
1110,
1110,
1110,
1110,
#MEASURE 8/4
#BPMCHANGE 314
#SCROLL 0.5
22,
0,
#MEASURE 4/4
#BPMCHANGE 157
#SCROLL 1
11,
11, //25
1110,
1110,
1110,
1110,
1111,
13,
1111,
11, //33
22,
2220,
11,
500000000000000000000000000008000000000000000000,
22,
2220,
11,
3, //41
#MEASURE 8/4
#GOGOSTART
#BPMCHANGE 314
#SCROLL 0.5
33,
3330,
33,
3330,
33,
3330,
#MEASURE 4/4
#BPMCHANGE 157
#SCROLL 1
1011,
3, //49
22,
1110,
22,
1110,
22,
1110,
22,
1110, //57
#GOGOEND
0,
500008000000000000000000000000000000000000000000,
0, //60
#END
