//TJADB Project
TITLE:Irregular Clock
TITLEJA:Irregular Clock
SUBTITLE:--siromaru as INNOCENT NOIZE
SUBTITLEJA:siromaru as INNOCENT NOIZE
BPM:270
WAVE:Irregular Clock.ogg
OFFSET:-0.783
DEMOSTART:29.231

COURSE:Edit
LEVEL:10
BALLOON:28
SCOREINIT:860
SCOREDIFF:0
#START
#SCROLL 0.5
10120222,
10210020,
10210122,
10210022,
100200000200000002200000,
100000100200000002200000,
12221122,
10020222, //8
10010222,
10010222,
10210020,
20020222,
100000002200000200200100,
100000002200000000100200,
11212212,
20020222, //16
#SCROLL 0.75
10120222,
10212122,
10210122,
10211122,
100200000200100002200000,
100000100200100002200000,
12221122,
10121222, //24
10211222,
10211222,
10211120,
20121222,
100000002200100200200100,
100000002200100000100200,
11212212,
1110202011102020, //32
#SCROLL 1
#GOGOSTART
3000112010102220,
100000000000100100200000100000100000200020002000,
1022201022201020,
1111201011112020,
1000112010102220,
100000000000100100100000200000100000100020002000,
1212121210001020,
1110201022102020, //40
3000112010102220,
100000000000100100200000100000100000200020002000,
1222201222201220,
1020111020201020,
1110201022201020,
1212121210002020,
3000221000221000,
3000111120201010, //48
#GOGOEND
1000001120001000,
22112020,
12112012,
12112122,
11021010,
21221120,
10112210,
1110201022201020, //56
1000001120001000,
22112020,
12112012,
12112122,
30230230,
40121060,
000000000000000000000000000000000000000000000008,
0, //64
#BPMCHANGE 135
#SCROLL 0.66
112122112122,
112122112122,
122112122112,
122112122112,
#SCROLL 1
111010202020111010202020,
111020102020111020102020,
111110202110111110202110,
111111202220111111222222,
#BPMCHANGE 270
5,
000000000000000000000000000000000008000000000000, //74
10211121,
1000201011102020,
10221122,
1010202011102020,
30121212,
3000102011201020,
32113211,
3011101040222020, //82
#GOGOSTART
3000221010102011,
2000102010102220,
1000221010102011,
2000111010101010,
3000221000112020,
3000221000112020,
1111101022222020,
1120112011201111, //90
1000221010102111,
2000102010102220,
1000221010102111,
2000111010202210,
3000221000112020,
3000221000112020,
1122102011221020,
1110111022202220, //98
31111211,
22221212,
22111221,
22111122,
11111222,
11122212,
100100100100202020100100,
1020111120002000, //106
221221221221,
211211211211,
1010222020102220,
1011112000102020,
32232232,
32232232,
100100102020102020100200,
1122112211222000, //114
#GOGOEND
7,
0,
0,
8,
0,
0,
0,
0, //122
#SCROLL 1.25
1010101010101111,
1010101010101111,
11111111,
1111111010101010,
30340340,
30340340,
11111111,
1111111111111111, //130
#SCROLL 1
#GOGOSTART
3000112010102220,
100000000000100100200000100000100000200020002000,
1022201022201020,
1111201011112020,
1000112010102220,
100000000000100100100000200000100000100020002000,
1212121210001020,
1110201022102020, //138
3000112010102220,
100000000000100100200000100000100000200020002000,
1222201222201220,
1020111020201020,
1110201022201020,
1212121210002020,
1111201111201111,
1000111120201010, //146
3,
#GOGOEND
0,
0,
0,
0,
0, //152
#END

COURSE:Oni
LEVEL:9
BALLOON:
SCOREINIT:1100
SCOREDIFF:0
#START
#SCROLL 0.5
20221222,
20221020,
20221222,
20221022,
22021020,
20021022,
22221222,
20021222, //8
20021222,
20021222,
20221020,
20021222,
20021222,
20021022,
22221222,
20021222, //16
#SCROLL 0.75
10021012,
20221020,
10021012,
20021212,
12021010,
20021212,
12221212,
20021211, //24
10021222,
10021222,
10221220,
10221022,
10121212,
10121212,
11111111,
1110101010101010, //32
#SCROLL 1
#GOGOSTART
30303032,
30303032,
30323030,
30323032,
30303032,
30323030,
1122102010001020,
11212122, //40
30303032,
30303032,
30323030,
30303122,
1110101022202020,
1122102010002020,
30230230,
3000111020201000, //48
#GOGOEND
10002001,
20112020,
00112020,
10112000,
10022010,
2212,
00112010,
11212212, //56
10002001,
20112020,
00112022,
10221122,
30030030,
40221030,
00112020,
111222, //64
#BPMCHANGE 135
#SCROLL 0.66
100200100222,
1212,
100200100222,
101201101211,
#SCROLL 1
101201101211,
111010200010100010201010,
313131414141,
301010402020111010222020,
#BPMCHANGE 270
5,
000000000000000000000000000000000008000000000000, //74
10201120,
10221120,
10201120,
10221120,
30303011,
30303011,
30111011,
1110101022202020, //82
#GOGOSTART
10221122,
1010201010102220,
10221122,
1110101010102020,
30230130,
30230130,
1110101022202020,
1020102010201111, //90
10221121,
2020101020201110,
20221122,
1110101010202010,
30230140,
30230140,
1120102011201020,
1110101022202020, //98
30101211,
20201212,
22101221,
20110122,
10101222,
10120211,
100100222100,
1000101120002000, //106
222111222111,
222111222111,
11220120,
1000112000101000,
30230230,
30230230,
100100201010201010200100,
1120112010102000, //114
#GOGOEND
5,
0,
000000000000000000000000000000000000000000000008,
0,
22020020,
20020022,
22222222,
20020222, //122
10121222,
10121222,
10120210,
10120122,
30340340,
30340340,
11212212,
1111101011111010, //130
#GOGOSTART
30303032,
30303032,
30323030,
30323032,
30303032,
3333,
1122102010001020,
11212122, //138
30303032,
30303032,
30323030,
30303122,
1110101022202020,
1122102010002020,
30230230,
3000111020201000, //146
3,
#GOGOEND
0,
0,
0,
0,
0, //152
#END

COURSE:Hard
LEVEL:8
BALLOON:
SCOREINIT:1620
SCOREDIFF:0
#START
#SCROLL 0.5
20020222,
20020020,
20020222,
20020020,
22020020,
20020020,
22202220,
20020222, //8
20020222,
20020222,
20020020,
20020222,
20020222,
20020020,
22202220,
20020220, //16
#SCROLL 0.75
10010110,
2012,
10010110,
2011,
11010110,
20011010,
11101110,
20020220, //24
10010220,
10010220,
10110220,
10110220,
10111011,
10111010,
11111110,
11111110, //32
#SCROLL 1
#GOGOSTART
3333,
3330,
3333,
33,
3333,
3330,
11221012,
10000022, //40
3333,
3330,
3333,
30001120,
11112222,
11111022,
30230230,
30112000, //48
#GOGOEND
12,
2122,
0022,
12,
10020010,
2212,
0022,
11102220, //56
12,
2122,
0022,
1022,
30030030,
4213,
0,
0, //64
#BPMCHANGE 135
#SCROLL 0.66
100200100201,
1212,
100200100201,
1212,
#SCROLL 1
101201101201,
101201101200,
333444,
300400111222,
#BPMCHANGE 270
5,
000000000000000000000000000000000008000000000000, //74
10201120,
10201120,
10201120,
10201120,
1111,
1111,
10111010,
11102220, //82
#GOGOSTART
10220111,
10101011,
10220111,
10101022,
30030030,
30030030,
11102220,
12121011, //90
10220112,
20201022,
20110112,
20101011,
30030040,
30030040,
11102220,
11111010, //98
30101011,
20202220,
11101201,
20010111,
10002222,
10020020,
1021,
10112000, //106
111100111100,
111100111100,
10220220,
10120000,
30030030,
30030030,
11102220,
12121020, //114
#GOGOEND
5,
0,
000000000000000000000000000000000000000000000008,
0,
2,
2,
2,
2, //122
10020220,
10020220,
10020220,
10110220,
30040040,
30040040,
11102220,
11111111, //130
#GOGOSTART
3333,
3330,
3333,
33,
3333,
3330,
11221012,
10000022, //138
3333,
3330,
3333,
30001120,
11112222,
11111022,
30230230,
3000111010000000, //146
3,
#GOGOEND
0,
0,
0,
0,
0, //152
#END

COURSE:Normal
LEVEL:7
BALLOON:
SCOREINIT:2460
SCOREDIFF:0
#START
#SCROLL 0.5
2,
2,
2,
2,
2,
2,
22,
2, //8
20020000,
20020000,
20020000,
20020000,
20020000,
20020000,
22,
2, //16
#SCROLL 0.75
10010010,
12,
10010010,
1,
10010010,
12,
11,
12, //24
1011,
1011,
12,
12,
1111,
1111,
11101110,
11101110, //32
#SCROLL 1
#GOGOSTART
3033,
3033,
3033,
33,
3033,
33,
10101011,
1, //40
3033,
3033,
3033,
3011,
11102220,
11111000,
30030030,
32, //48
#GOGOEND
12,
2022,
0,
11,
1,
2202,
0,
1122, //56
12,
2022,
0,
11,
30030030,
4403,
0,
0, //64
#BPMCHANGE 135
#SCROLL 0.66
1212,
1212,
1212,
1212,
#SCROLL 1
1212,
1212,
111222,
3434,
#BPMCHANGE 270
5,
000000000000000000000000000000000008000000000000, //74
1022,
1022,
11,
11,
1110,
1110,
1111,
11101110, //82
#GOGOSTART
10010010,
1011,
10010010,
1011,
30030030,
30030030,
1122,
11101000, //90
10010010,
1011,
10010010,
1011,
30030040,
30030040,
1122,
11111010, //98
3011,
1011,
11101010,
1011,
10002220,
2011,
1022,
20222000, //106
1111,
1111,
10020010,
10020000,
30030030,
30030030,
1122,
11111010, //114
#GOGOEND
5,
0,
000000000000000000000000000000000000000000000008,
0,
2,
2,
2,
2, //122
1110,
1110,
1111,
1111,
30040040,
30040040,
1122,
11101110, //130
#GOGOSTART
3033,
3033,
3033,
33,
3033,
33,
10101011,
1, //138
3033,
3033,
3033,
3011,
11102220,
11111000,
30030030,
32, //146
3,
#GOGOEND
0,
0,
0,
0,
0, //152
#END

COURSE:Easy
LEVEL:5
BALLOON:
SCOREINIT:3810
SCOREDIFF:0
#START
#SCROLL 0.5
2,
0,
2,
0,
2,
0,
2,
2, //8
2,
2,
2,
2,
2,
2,
2,
2, //16
#SCROLL 0.75
1,
1,
11,
1,
1,
1,
11,
1, //24
1,
1,
1,
1,
11,
11,
1110,
1110, //32
#SCROLL 1
#GOGOSTART
3003,
3003,
3,
33,
3003,
33,
1011,
1, //40
3003,
3003,
33,
33,
1110,
1110,
30030030,
3, //48
#GOGOEND
1,
2002,
0,
1,
1,
2002,
0,
11, //56
10,
2002,
0,
11,
30030030,
3003,
0,
0, //64
#BPMCHANGE 135
#SCROLL 0.66
11,
11,
11,
11,
#SCROLL 1
1210,
1210,
34,
3430,
#BPMCHANGE 270
5,
000000000000000000000008000000000000000000000000, //74
11,
1,
11,
1,
11,
11,
1110,
1110, //82
#GOGOSTART
1011,
1,
1011,
1,
30030030,
30030030,
11,
1110, //90
1011,
1,
1011,
1,
30030030,
30030030,
11,
1110, //98
3011,
11,
1110,
1,
1011,
11,
1011,
11, //106
1110,
1110,
1011,
1,
30030030,
30030030,
11,
1110, //114
#GOGOEND
5,
0,
000000000000000000000000000000000000000000000008,
0,
2,
2,
2,
2, //122
11,
11,
1110,
1110,
30030030,
30030030,
11,
1111, //130
#GOGOSTART
3003,
3003,
3,
33,
3003,
33,
1011,
1, //138
3003,
3003,
33,
33,
1110,
1110,
30030030,
30, //146
3,
#GOGOEND
0,
0,
0,
0,
0, //152
#END
