//TJADB Project
TITLE:SHEESH
TITLEJA:SHEESH
SUBTITLE:--
SUBTITLEJA:
BPM:140
WAVE:SHEESH.ogg
OFFSET:-1.159
DEMOSTART:34.127

COURSE:Oni
LEVEL:7
BALLOON:9,9,9,9
SCOREINIT:2500
SCOREDIFF:0
#START
1000002220002000,
1000002220002000,
1000002220002000,
22222020, //4
11021102,
11022202,
11021102,
11010100,
11021102,
11022202,
11021101,
2002001020020020, //12
70008011,
500000000000000000000008000000000000200000000000,
22102011,
22102020,
70008011,
500000000000000000000008000000000000200000200000,
1011202010112020,
10112020, //20
#GOGOSTART
3000100020103011,
2000301120003000,
30102130,
1011202010112000,
3000100020103011,
2000301120003000,
30102130,
1022102011221000, //28
#GOGOEND
2000220020002000,
1110101022222220,
100111222200,
100111222200,
1000112010102020,
1000112010101120,
1000110011002200,
100100000000100010002000100100000000200100200200, //36
100000111010202010100010,
200112112112,
200111222111,
30320032,
1000112210112020,
1122102011102000,
2000200022101220,
1010101022221100,
1010102210112000,
2222, //46
70008011,
500000000000000000000008000000000000200000000000,
22102011,
22102020,
70008011,
500000000000000000000008000000000000200000200000,
1011202010112020,
10112020, //54
#GOGOSTART
3000100020103011,
2000301120003000,
30102130,
1011202010112000,
3000100020103011,
2000301120003000,
30102130,
1022102011221000,
#GOGOEND
0, //63
#END

COURSE:Hard
LEVEL:5
BALLOON:7,7,7,7
SCOREINIT:3590
SCOREDIFF:0
#START
1022,
1022,
1022,
2220, //4
11021100,
11022200,
11021102,
02020200,
11021100,
11022200,
11021102,
2002000020020020, //12
70008011,
500000000000000000000008000000000000200000000000,
10101011,
22102020,
70008011,
500000000000000000000008000000000000200000200000,
1111,
20222020, //20
#GOGOSTART
30102130,
20312030,
30102130,
22202220,
30102130,
20312030,
30102130,
20112020, //28
#GOGOEND
2222,
11101110,
100100111100,
100100111100,
10101110,
10101110,
1112,
1112, //36
100100111100,
200100111100,
200100111100,
3303,
10111020,
10111020,
20202011,
11112000,
11101110,
2222, //46
70008011,
500000000000000000000008000000000000200000000000,
10101011,
22102020,
70008011,
500000000000000000000008000000000000200000200000,
1111,
20222020, //54
#GOGOSTART
30102130,
20312030,
30102130,
22202220,
30102130,
20312030,
30102130,
20112020,
#GOGOEND
0, //63
#END

COURSE:Normal
LEVEL:5
BALLOON:5,5,5,5
SCOREINIT:5010
SCOREDIFF:0
#START
1,
1,
1,
1, //4
11001100,
11001100,
11001102,
02020200,
11001100,
11001100,
11001102,
22, //12
78,
500000000000000000000008000000000000000000000000,
1110,
22,
78,
500000000000000000000008000000000000000000000000,
1110,
22, //20
#GOGOSTART
30101130,
10311030,
30101130,
1120,
30101130,
10311030,
30101130,
1122, //28
#GOGOEND
2220,
10101110,
1110,
1110,
10101110,
10101110,
1110,
1110, //36
1111,
2111,
2111,
3303,
10111000,
10111000,
1110,
11111000,
11101000,
2222, //46
78,
500000000000000000000008000000000000000000000000,
1110,
22,
78,
500000000000000000000008000000000000000000000000,
1110,
22, //54
#GOGOSTART
30101130,
10311030,
30101130,
1120,
30101130,
10311030,
30101130,
10111020,
#GOGOEND
0, //63
#END

COURSE:Easy
LEVEL:3
BALLOON:3,3,3,3
SCOREINIT:10720
SCOREDIFF:0
#START
0,
0,
0,
0, //4
1,
1,
100000001,
0,
1,
1,
1,
11, //12
78,
500000000000000000000008000000000000000000000000,
11,
2,
78,
500000000000000000000008000000000000000000000000,
11,
2, //20
#GOGOSTART
3003,
0303,
3003,
11,
3003,
0303,
3003,
0, //28
#GOGOEND
22,
1110,
11,
11,
1,
1110,
11,
11, //36
1,
1110,
11,
3303,
11,
1110,
11,
1110,
11,
2220, //46
78,
500000000000000000000008000000000000000000000000,
11,
2,
78,
500000000000000000000008000000000000000000000000,
11,
2, //54
#GOGOSTART
3003,
0303,
3003,
11,
3003,
0303,
3003,
0111,
#GOGOEND
0, //63
#END
