//TJADB Project
TITLE:Ii Aru Fanclub
TITLEJA:いーあるふぁんくらぶ
SUBTITLE:--MikitoP feat. GUMI & Kagamine Rin
SUBTITLEJA:みきとP
BPM:103
WAVE:Ii Aru Fanclub.ogg
OFFSET:-2.030
DEMOSTART:73.874

COURSE:Oni
LEVEL:8
SCOREINIT:500
SCOREDIFF:130
#START
#GOGOSTART
#SCROLL 1.40776699029
3
#GOGOEND
0,
#GOGOSTART
#MEASURE 4/4
#BPMCHANGE 145
#SCROLL 1
10211021,
#GOGOEND
10211220,
10211021,
1000202212102222,
#GOGOSTART
10211021,
#GOGOEND
10211220,
10211021,
100000000000200000200200100200000200200000101010,
1020102101201021,
0120102101201020,
#GOGOSTART
1020100010112000,
#GOGOEND
1020100010211000,
1020100010122000,
1020100010121000,
#GOGOSTART
1020100010112012,
#GOGOEND
1020100010211021,
1020100010122012,
1020102212202022,
1011100020020011,
11102222,
1011100020220220,
1011101020202000,
2011100020020011,
11144444,
1212112210102020,
2202202020204000,
1020102101201022,
1020100020222020,
1020102101201022,
1022102212101000,
1022102211011022,
1020102120212020,
1212121211221120,
33302222,
#GOGOSTART
11211012,
#GOGOEND
22114040,
#GOGOSTART
11211021,
#GOGOEND
2020101012201220,
#GOGOSTART
11211021,
#GOGOEND
22112111,
1122112212221020,
3330,
#GOGOSTART
1022102210102000,
1011202210102000,
1022102210221020,
1011202210201000,
1022102210102000,
1022102210102000,
1022102012221020,
1022122030004000,
30003344,
1222201222203000,
1020102010112022,
1020102010122022,
1011202010112020,
1020102012201220,
1020102010112022,
1020102010122022,
1022102010221220,
1022102030004000,
30003344,
100200100200200000100200100200200500000008000000,
#GOGOEND
3,
,
0022100000000000,
#END

COURSE:Hard
LEVEL:6
BALLOON:12
SCOREINIT:570
SCOREDIFF:130
#START
#GOGOSTART
#SCROLL 1.40776699029
3
#GOGOEND
0,
#GOGOSTART
#MEASURE 4/4
#BPMCHANGE 145
#SCROLL 1
10211021,
#GOGOEND
10211220,
10211021,
1000201110202000,
#GOGOSTART
10211021,
#GOGOEND
10211220,
10211021,
1000201110202000,
500000000000000000000000000000000008000000000000,
500000000000000000000000000000000008000000000000,
#GOGOSTART
2020200020222000,
#GOGOEND
1010100010111000,
2020200020222000,
1010100010121000,
#GOGOSTART
2020200020222000,
#GOGOEND
1010100010111000,
2020200020222000,
1020102220101000,
1010100020020011,
11102020,
1010100020220220,
11102020,
2022200020020011,
11122222,
500000000000000000000000000000000008000000000000,
33000000,
1020100020020011,
12102222,
1020100020020011,
12101120,
2022200020020011,
12122222,
7008,
33300000,
#GOGOSTART
11011011,
#GOGOEND
11102020,
#GOGOSTART
11111011,
#GOGOEND
11102020,
#GOGOSTART
11211011,
#GOGOEND
21202000,
1011101110111010,
3330,
#GOGOSTART
1020102010111000,
1010201010222000,
0222,
12121000,
1020102010111000,
1000102010222000,
20002222,
2034,
30003344,
1111101111100000,
1020102010111020,
1020102010112020,
3022202220222000,
12121000,
1020102010111020,
1020102010112020,
1020102010111020,
12123040,
30003344,
1111101111100000,
#GOGOEND
3,
,
0022100000000000,
#END

COURSE:Normal
LEVEL:4
SCOREINIT:620
SCOREDIFF:150
#START
#GOGOSTART
#SCROLL 1.40776699029
3
#GOGOEND
0,
#GOGOSTART
#MEASURE 4/4
#BPMCHANGE 145
#SCROLL 1
11,
#GOGOEND
10000220,
11,
10000110,
#GOGOSTART
11,
#GOGOEND
10000220,
11,
1,
500000000000000000000000000000000008000000000000,
500000000000000000000000000000000008000000000000,
#GOGOSTART
10101011,
#GOGOEND
11,
10101011,
1110,
#GOGOSTART
10101011,
#GOGOEND
11,
10101011,
1110,
1122,
11100000,
11102020,
11101010,
11102020,
11100000,
11111110,
33000000,
1122,
11100000,
11102020,
11101010,
11102020,
11100000,
11111110,
33300000,
#GOGOSTART
11011010,
#GOGOEND
11102020,
#GOGOSTART
11011010,
#GOGOEND
11102020,
#GOGOSTART
10111010,
#GOGOEND
11102000,
10111033,
3330,
#GOGOSTART
10101110,
22201110,
0222,
10111000,
10101110,
20222020,
20001111,
1034,
30003344,
600000000000000000000000000000000008000000000000,
10101110,
20202220,
0222,
10111000,
10101110,
20202220,
10101110,
2234,
30003344,
600000000000000000000000000000000008000000000000,
#GOGOEND
3,
#END

COURSE:Easy
LEVEL:3
BALLOON:7,5
SCOREINIT:610
SCOREDIFF:170
#START
#GOGOSTART
#SCROLL 1.40776699029
3
#GOGOEND
0,
#GOGOSTART
#MEASURE 4/4
#BPMCHANGE 145
#SCROLL 1
11,
#GOGOEND
1011,
11,
1,
#GOGOSTART
11,
#GOGOEND
1011,
11,
1,
500000000000000000000000000000000008000000000000,
500000000000000000000000000000000008000000000000,
#GOGOSTART
1,
#GOGOEND
11,
5,
000000000000000000000000000008000000000000000000,
#GOGOSTART
1,
#GOGOEND
11,
9,
8,
1100,
1100,
1100,
2220,
1100,
1122,
500000000000000000000000000008000000000000000000,
3,
1100,
1100,
1100,
2220,
1100,
1122,
7008,
3300,
#GOGOSTART
12,
#GOGOEND
1011,
#GOGOSTART
12,
#GOGOEND
1011,
#GOGOSTART
12,
#GOGOEND
1120,
1110,
3330,
#GOGOSTART
1111,
1111,
0222,
1110,
1111,
1111,
1022,
2034,
3033,
600000000000000000000000000008000000000000000000,
1110,
1110,
1222,
1110,
1110,
1110,
1122,
1034,
3033,
600000000000000000000000000008000000000000000000,
#GOGOEND
3,
#END
