//TJADB Project
TITLE:Miss You 3000
TITLEJA:Miss You 3000
TITLEZH:想见你想见你想见你 Miss You 3000
SUBTITLE:--Someday or One Day
SUBTITLEJA:ドラマ「時をかける愛」より
SUBTITLEZH:出自"想见你"
BPM:65
WAVE:Miss You 3000.ogg
OFFSET:-3.877
DEMOSTART:43.730

COURSE:Oni
LEVEL:6
BALLOON:17
SCOREINIT:4740
SCOREDIFF:0
#START
2222,
2,
2001101010110022,
0001101010110022,
0001101010110001,
1011020020002020,
1011020210110202,
1011020111002020,
1011020210110202,
1011000110110200,
7000000080000222, //11
1022020010220200,
#GOGOSTART
1011201101102112,
1011210210112102,
1011202211102112,
1011210210112100,
1011210300102011,
1011200110112001,
1011210030004000,
#GOGOEND
2112211021122110,
2112211011221010,
1222112012221120,
2112211040403030,
0, //24
#END

COURSE:Hard
LEVEL:4
BALLOON:13
SCOREINIT:5950
SCOREDIFF:0
#START
22,
2,
2000101010110022,
0000101010110022,
0000101010110001,
1011020020002020,
1011020010110200,
1011020101002020,
1011020010110200,
1011000110110200,
7000000080000220, //11
2022020020220200,
#GOGOSTART
3022001100101110,
1011020010110200,
1011001101000110,
3011020010110200,
1011020300102011,
1011000110110001,
1011020010001000,
#GOGOEND
1011102010111020,
1011102020111010,
1011102010111020,
1011102040403030,
0, //24
#END

COURSE:Normal
LEVEL:3
BALLOON:11,14
SCOREINIT:11190
SCOREDIFF:0
#START
2,
2,
00111020,
00111020,
00111020,
12,
11001100,
11002000,
11001100,
11002020,
78, //11
2002020020020200,
#GOGOSTART
3001001100002000,
1001010010010100,
7008,
3001010010010100,
600000000000000000000000000008000000000000000000,
1011000010110000,
1011010010001000,
#GOGOEND
11101110,
11104030,
11101110,
11104033,
0, //24
#END

COURSE:Easy
LEVEL:2
BALLOON:9,11
SCOREINIT:19930
SCOREDIFF:0
#START
2,
2,
0110,
0110,
0110,
12,
11,
12,
11,
12,
78, //11
22,
#GOGOSTART
3110,
11001100,
7008,
3111,
600000000000000000000000000008000000000000000000,
11001100,
1111,
#GOGOEND
11,
1011,
11,
10001033,
0, //24
#END
