//TJADB Project
TITLE:Taotai
TITLEJA:淘汰
TITLEZH:淘汰
SUBTITLE:--
SUBTITLEJA:
SUBTITLEZH:
BPM:59
WAVE:Taotai.ogg
OFFSET:-4.133
DEMOSTART:83.952

COURSE:Oni
LEVEL:5
BALLOON:15,20,45
SCOREINIT:5740
SCOREDIFF:0
#START
22002220,
22002000,
2022,
500000000000000000000008000000000000000000000000, //4
10111120,
10111120,
1011100010111000,
1011101020000000,
11112020,
11112020,
1011100020020020,
70080000, //12
1000101010112000,
1000101010112000,
1011100010111000,
1011210112002011,
1010101120002011,
1010101120002011,
1011200010101010,
500000000000000008000000000000100000100000200000, //20
#GOGOSTART
1102000020101020,
1102000020101011,
2100101121001120,
70008112,
1102000020101020,
3011201121002011,
1011200030302020,
#GOGOEND
7,
8,
0, //30
#END

COURSE:Hard
LEVEL:3
BALLOON:12,16,40
SCOREINIT:8480
SCOREDIFF:0
#START
22002020,
22002000,
2022,
500000000000000000000008000000000000000000000000, //4
10111000,
10111000,
1011000010110000,
1011000020000000,
11102000,
11102000,
1011000020020020,
70080000, //12
10111020,
10111020,
1011100010111000,
1011100020000000,
11112000,
11112000,
1011100010111000,
10000111, //20
#GOGOSTART
500000000000000008000000000000100000100000100000,
500000000000000008000000000000100000100000100100,
1000101110001110,
70008111,
500000000000000008000000000000100000100000100000,
600000000000000000000000000008000000000000100000,
1011100030302000,
#GOGOEND
7,
8,
0, //30
#END

COURSE:Normal
LEVEL:2
BALLOON:8,12,24
SCOREINIT:15200
SCOREDIFF:0
#START
1,
1,
12,
500000000000000000000008000000000000000000000000, //4
11,
11,
11001100,
11001000,
1120,
1120,
11002000,
70080000, //12
1110,
1110,
11001100,
11001000,
1120,
1120,
11001100,
10000110, //20
#GOGOSTART
500000000000000008000000000000100000100000000000,
500000000000000008000000000000100000100000000000,
1121,
70008110,
500000000000000008000000000000100000100000000000,
600000000000000000000000000000000008000000000000,
30003300,
#GOGOEND
7,
8,
0, //30
#END

COURSE:Easy
LEVEL:1
BALLOON:6,6,20
SCOREINIT:24770
SCOREDIFF:0
#START
1,
1,
11,
500000000000000000000008000000000000000000000000, //4
1,
1,
11,
1,
1100,
1100,
11,
70080000, //12
1110,
1110,
11,
1,
1100,
1100,
11,
1001, //20
#GOGOSTART
500000000000000008000000000000000000100000000000,
500000000000000008000000000000000000100000000000,
11,
70080010,
500000000000000008000000000000000000100000000000,
600000000000000000000000000008000000000000000000,
33,
#GOGOEND
7,
8,
0, //30
#END
