//TJADB Project
TITLE:PEACEKEEPER
TITLEJA:PEACEKEEPER
SUBTITLE:--STEREO DIVE FOUNDATION / That Time I Got Reincarnated As A Slime
SUBTITLEJA:「転生したらスライムだった件」より
BPM:200
WAVE:PEACEKEEPER.ogg
OFFSET:-0.352
DEMOSTART:56.739

COURSE:Oni
LEVEL:7
BALLOON:15
SCOREINIT:2310
SCOREDIFF:0
#START
2222,
20220202,
00202022,
00202022,
00202022,
0022,
0000000011104000, //7
1010202011102010,
01201211,
1010202011102010,
0010201022202020,
1010202011102010,
01201211,
1010202011102010,
0010201022201111, //15
10201222,
12221121,
00221222,
10210101,
00221222,
12221121,
00221222,
500000000000000000000000000000000008000000300000, //23
0000201110102020,
10120212,
0000201110102020,
10120212,
02110012,
02110700,
0,
8000201011112000, //31
10221222,
1220202010101000,
100000200200100200202020,
12221120,
10221222,
1220202010101000,
100000200200100200202020,
1020202011100020, //39
1110201010201020,
1110201020001020,
1110201010201020,
1110201020102020,
12,
2000000011104000,
1110102000102050,
000000000000000000000008000000000000000000000000, //47
#GOGOSTART
1011202010112020,
1000112010200020,
1011202010112020,
1000112010200020,
1000201110002011,
1000201110002010,
3344,
600000000000000000000008000000000000000000000000, //55
1011201020112010,
1000112010200020,
1011201020112010,
1000112010200020,
1000102210001022,
1000102210001020,
3344,
33, //63
#GOGOEND
6,
000000000000000000000008000000000000000000000000,
1011101020111010,
1000112010200000,
6,
000000000000000000000008000000000000000000000000,
1011101020111010,
30340400,
3,
0,
0,
0, //75
#END

COURSE:Hard
LEVEL:5
BALLOON:13
SCOREINIT:4410
SCOREDIFF:0
#START
2220,
20220002,
00002022,
00002022,
00002022,
0022,
0, //7
10001011,
0211,
10001011,
0222,
10001011,
0211,
10001011,
0222, //15
1110,
10101102,
0110,
10220202,
0110,
10101102,
0110,
500000000000000000000000000000000008000000000000, //23
00111010,
10110202,
00111010,
10110202,
00110011,
00110700,
0,
8111, //31
11,
10001110,
22,
20001110,
11,
10001110,
22,
20001101, //39
01010101,
01102000,
10101101,
01010101,
12,
2022,
10110105,
000000000000000000000008000000000000000000000000, //47
#GOGOSTART
11101020,
10110200,
11101020,
10110200,
10011000,
20022000,
3344,
600000000000000000000008000000000000000000000000, //55
11101020,
10110200,
11101020,
10110200,
10011000,
20022000,
3344,
33, //63
#GOGOEND
6,
000000000000000000000008000000000000000000000000,
11111020,
10110200,
6,
000000000000000000000008000000000000000000000000,
11111020,
30330300,
3,
0,
0,
0, //75
#END

COURSE:Normal
LEVEL:4
BALLOON:9
SCOREINIT:8960
SCOREDIFF:0
#START
2,
20000002,
00000002,
00000002,
00000002,
0022,
0, //7
10001001,
0,
10001001,
0,
10001001,
0,
10001001,
0, //15
1,
10001002,
0,
10000002,
0,
10001002,
0,
500000000000000000000000000000000008000000000000, //23
0110,
1,
0110,
10000001,
00000001,
00000700,
0,
8, //31
11,
1,
22,
2,
11,
11,
22,
20000001, //39
00000001,
01,
10101001,
0,
11,
12,
5,
000000000000000000000008000000000000000000000000, //47
#GOGOSTART
1110,
10010000,
1110,
10010000,
11,
22,
3333,
3, //55
1110,
10010000,
1110,
10010000,
11,
22,
3333,
33, //63
#GOGOEND
6,
000000000000000000000008000000000000000000000000,
1110,
10010000,
6,
000000000000000000000008000000000000000000000000,
1110,
30030000,
3,
0,
0,
0, //75
#END

COURSE:Easy
LEVEL:3
BALLOON:7
SCOREINIT:12600
SCOREDIFF:0
#START
2,
00000002,
0,
00000002,
0,
0022,
0, //7
10000001,
0,
10000001,
0,
10000001,
0,
10000001,
0, //15
1,
11,
0,
10000001,
0,
11,
0,
500000000000000000000000000000000008000000000000, //23
01,
1,
01,
10000001,
00000001,
00000700,
0,
8, //31
11,
1,
22,
2,
11,
1,
22,
20000001, //39
00000001,
01,
10000001,
0,
1,
1,
5,
000000000000000000000008000000000000000000000000, //47
#GOGOSTART
11,
1,
11,
1,
11,
2,
3330,
3, //55
11,
1,
11,
1,
11,
2,
3330,
33, //63
#GOGOEND
6,
000000000000000000000008000000000000000000000000,
11,
1,
6,
000000000000000000000008000000000000000000000000,
11,
1,
3,
0,
0,
0, //75
#END
