//TJADB Project
TITLE:Zenryoku Dive
TITLEJA:全力Dive
SUBTITLE:--Carpainter feat. Nanahira / WADIVE RECORD
SUBTITLEJA:Carpainter feat. ななひら / WADIVE RECORD
BPM:145
WAVE:Zenryoku Dive.ogg
OFFSET:-2.085
DEMOSTART:43.043 //shinuchi:
6240/3300/2540/1660

COURSE:Oni
LEVEL:7
BALLOON:10,40
SCOREINIT:510,1830
SCOREDIFF:125
#START
0,
10110050,
000000000000000000000000000000000008000000000000,
12110050,
000000000000000000000000000000000008000000000000,
1022201022205000,
000000000000000000000000000000000008000000000000,
3022203022206000,
000000000000000000000008000000200000200000000000, //9
1011102010221010,
1011101020201000,
1011102010221022,
1011101020201000,
1011102010101022,
100000200000100000000000500008000000100000200000,
1011101022101050,
000000000000000008000000100000200000400000000000, //17
1110201000222020,
10120211,
1110400010222020,
1020002210201020,
1110400010222020,
11401105,
000008000000400000000000300000300000000000600000,
000000000000000000000008000000000000100000000000, //25
#GOGOSTART
4010401011201110,
1011201022221000,
4010401011201110,
1011202030203000,
1022102210102020,
1011201010202010, //31
4010401011201110,
1011201022221000,
4010401011201110,
1011202010203000,
1022102210102022,
1110203000300070,
08,
1212121210202022,
1022201022201020,
1212121212121210, //41
#GOGOEND
1110201000222020,
10120211,
1110400010222020,
1020002210201020,
1110400010222020,
11401105,
000008000000400000000000300000300000000000600000,
000000000000000000000008000000000000100000000000, //49
2000200020200022,
22222020,
20202202,
22222020,
10101212,
1022102010202000, //55
#GOGOSTART
4010401011201110,
1011201022221000,
4030403011201110,
1011202011103000,
1022102210102022,
1110203000300030,
000112102100,
100112102122,
100000102020102020100200,
100122101400, //65
1022201022201000,
1212121210202000,
1022201022201000,
1212121210202000,
1022201022201000,
1212121210202000,
3022203022206000,
000000000000000000000000000000000008000000000000, //73
#GOGOEND
10110070,
0,
0,
8,
0, //78
#END

COURSE:Hard
LEVEL:5
BALLOON:5,8,5,34
SCOREINIT:600,2890
SCOREDIFF:150
#START
0,
10110050,
000000000000000000000000000000000008000000000000,
10110050,
000000000000000000000000000000000008000000000000,
12212250,
000000000000000000000000000000000008000000000000,
12212250,
000000000000000000000008000000000000200000000000, //9
10120011,
10002220,
10120212,
10002220,
11120012,
12101012,
10110115,
000000000000000008000000100000000000400000000000, //17
11210202,
10120011,
00400222,
02020202,
10001102,
01001107,
00803306,
000000000000000000000008000000000000100000000000, //25
#GOGOSTART
40401201,
1011101020001000,
40401201,
1011101030003000,
12121122,
02010111, //31
40401201,
1011101020001000,
40401201,
1011101030003000,
12121102,
01130307,
08,
11111220,
12212210,
11111220, //41
#GOGOEND
11210202,
10120011,
00400222,
02020202,
10001102,
01001107,
00803306,
000000000000000000000008000000000000100000000000, //49
22,
22202000,
22,
22202020,
10101212,
10121220, //55
#GOGOSTART
40401201,
1011101020001000,
40401201,
1011101030003000,
12101102,
03030303,
000101101100,
100101102201,
100101102200,
100101100400, //65
12212210,
11111220,
12212210,
11111220,
12212210,
11111220,
12212260,
000000000000000000000000000000000008000000000000, //73
#GOGOEND
10110070,
0,
0,
8,
0, //78
#END

COURSE:Normal
LEVEL:5
BALLOON:5,20
SCOREINIT:610,3750
SCOREDIFF:173
#START
0,
10010050,
000000000000000000000000000000000008000000000000,
10010050,
000000000000000000000000000000000008000000000000,
10110050,
000000000000000000000000000000000008000000000000,
10110050,
000000000000000000000008000000000000200000000000, //9
10110010,
1022,
10110110,
1022,
10110010,
1110,
10110115,
000000000008000000000000100000000000400000000000, //17
10100202,
20220011,
00400222,
02010101,
10001101,
01001103,
00003306,
000000000000000000000008000000000000000000000000, //25
#GOGOSTART
40401101,
10111010,
40401101,
11103030,
10101122,
02010100, //31
40401101,
10111010,
40401101,
11103030,
10101102,
01010107,
08,
11101020,
10210210,
11101110, //41
#GOGOEND
10100202,
20220011,
00400222,
02010101,
10001101,
01001103,
00003306,
000000000000000000000008000000000000000000000000, //49
22,
2220,
22,
2220,
1111,
1112, //55
#GOGOSTART
40401101,
10111010,
40401101,
11103030,
10101102,
01010103,
0112,
0111,
2112,
0114, //65
10210210,
11101020,
10210210,
11101020,
10210210,
11101020,
10210160,
000000000000000000000000000000000008000000000000, //73
#GOGOEND
10110070,
0,
0,
8,
0, //78
#END

COURSE:Easy
LEVEL:3
BALLOON:4,16
SCOREINIT:660,7400
SCOREDIFF:250
#START
0,
1005,
000000000000000000000000000008000000000000000000,
1005,
000000000000000000000000000008000000000000000000,
10010050,
000000000000000000000000000008000000000000000000,
10010050,
000000000000000000000000000008000000000000000000, //9
1001,
12,
1001,
12,
1001,
11,
10010010,
01, //17
1100,
10100005,
000000000008000000000000000000000000000000100000,
00010001,
00001001,
00001003,
00003006,
000000000000000000000008000000000000000000000000, //25
#GOGOSTART
3300,
1110,
3300,
1130,
10100002,
00020000, //31
3300,
1110,
3300,
1130,
10100002,
00020007,
08,
12,
10010010,
02, //41
#GOGOEND
1100,
10100005,
000000000008000000000000000000000000000000100000,
00010001,
00001001,
00001003,
00003006,
000000000000000000000008000000000000000000000000, //49
2,
22,
2,
22,
11,
1110, //55
#GOGOSTART
3300,
1110,
3300,
1130,
10100002,
00020003,
0102,
0101,
1102,
0104, //65
10010010,
11,
10010010,
11,
10010010,
11,
10010060,
000000000000000000000000000008000000000000000000, //73
#GOGOEND
10010070,
0,
0,
8,
0, //78
#END
