//TJADB Project
TITLE:Shukusei!! Loli-gami Requiem☆
TITLEJA:粛聖!! ロリ神レクイエム☆
SUBTITLE:--Shigure Ui
SUBTITLEJA:しぐれうい
BPM:165
WAVE:Shukusei Loli-gami Requiem.ogg
OFFSET:-2.044
DEMOSTART:74.765

COURSE:Oni
LEVEL:8
BALLOON:4,16
SCOREINIT:1810
SCOREDIFF:0
#START
11221122,
20220212,
11221122,
2000002010010020,
1002001010020010,
200000000200100020001000,
5,
0,
000000000000000000000000000000000008000000100100,
14107080, //10
102010221010
#SCROLL 1.5
#GOGOSTART
40
#GOGOEND
#SCROLL 1
10,
002210201010
#SCROLL 1.5
#GOGOSTART
4000,
#GOGOEND
#SCROLL 1
12121212,
#SCROLL 1.5
#GOGOSTART
303000404000
#GOGOEND
#SCROLL 1
2210, //14
1122102022102000,
1111102000
#SCROLL 1.5
#GOGOSTART
400000,
#GOGOEND
#SCROLL 1
1012201020211020,
600000000000000000000000000000000008000000000000,
4, //19
1000201010112020,
12210120,
1010201010112010,
0040402211202000,
1000201010112020,
12210121,
20211221,
02422020, //27
1010201010112020,
1020201000102220,
1010201010112010,
0022202010201020,
10211021,
1110200011112000,
1110202010002000, //34
#SCROLL 0.75
#GOGOSTART
11101110,
1110201010101000,
#SCROLL 1
2220202010222020,
1020202022220000,
#SCROLL 0.75
11101110,
111020101000
#SCROLL 1
4000,
1020201010021010,
1110101022102220, //42
#GOGOEND
1010201010112010,
2220
#SCROLL 1.5
#GOGOSTART
30400000
#GOGOEND
#SCROLL 1
1020,
1010201010112010,
2220
#SCROLL 1.5
#GOGOSTART
30400000
#GOGOEND
#SCROLL 1
2000,
1110222011102220,
1011222000202220,
11211121,
1110202211111010, //50
#GOGOSTART
1010201010112010,
#GOGOEND
2220
#SCROLL 1.5
#GOGOSTART
304000
#SCROLL 1
211020,
1010201020221020,
#GOGOEND
2220
#SCROLL 1.5
#GOGOSTART
3000
#SCROLL 1
10210210, //54
1011211020221220,
1011202010102020,
1012221020211120,
1000202211111010,
1010201110102010,
3030300022221110, //60
#GOGOEND
#SCROLL 0.5
1212,
#SCROLL 0.6
1212,
#SCROLL 0.7
11201120,
#SCROLL 0.8
11201120,
#SCROLL 0.9
11401140,
#SCROLL 1
11401140,
#SCROLL 1.25
3340334
#SCROLL 1.5
6,
000000000000000000000000000000000008000000000000, //68
#SCROLL 1
102010221010
#SCROLL 1.5
#GOGOSTART
40
#GOGOEND
#SCROLL 1
10,
002210201010
#SCROLL 1.5
#GOGOSTART
4000,
#GOGOEND
#SCROLL 1
12121212,
#SCROLL 1.5
#GOGOSTART
303000404000
#GOGOEND
#SCROLL 1
2210, //72
1122102022102000,
1111102000
#SCROLL 1.5
#GOGOSTART
400000,
#GOGOEND
#SCROLL 1
1012201020211020,
7,
#BARLINEOFF
08, //77
#END

COURSE:Hard
LEVEL:5
BALLOON:3,13
SCOREINIT:2660
SCOREDIFF:0
#START
11221122,
20220212,
11221122,
2000002010010020,
10011001,
200221,
5,
0,
000000000000000000000000000000000008000000300000,
04007080, //10
121010
#SCROLL 1.5
#GOGOSTART
4
#GOGOEND
#SCROLL 1
1,
021010
#SCROLL 1.5
#GOGOSTART
40,
#GOGOEND
#SCROLL 1
1111,
#SCROLL 1.5
#GOGOSTART
330440
#GOGOEND
#SCROLL 1
10, //14
12122020,
11120
#SCROLL 1.5
#GOGOSTART
400,
#GOGOEND
#SCROLL 1
11212212,
600000000000000000000000000000000008000000000000,
4, //19
10201122,
02010120,
10211101,
04401220,
10201122,
02010121,
20201201,
02402020, //27
10211122,
02010122,
10211101,
02221010,
10211021,
11201020,
11221020, //34
#SCROLL 0.75
#GOGOSTART
1111,
10211010,
#SCROLL 1
22221222,
12222020,
#SCROLL 0.75
1111,
112010
#SCROLL 1
40,
10211011,
11112020, //42
#GOGOEND
11211121,
20
#SCROLL 1.5
#GOGOSTART
3400
#GOGOEND
#SCROLL 1
12,
11211121,
20
#SCROLL 1.5
#GOGOSTART
3400
#GOGOEND
#SCROLL 1
20,
1212,
10220220,
11211121,
10201110, //50
#GOGOSTART
11211121,
#GOGOEND
20
#SCROLL 1.5
#GOGOSTART
340
#SCROLL 1
212,
11212212,
#GOGOEND
2000
#SCROLL 1.5
#GOGOSTART
3000
#SCROLL 1
10020020, //54
10212012,
01201020,
1000201020020020,
10201110,
10211021,
33302020, //60
#GOGOEND
#SCROLL 0.5
1212,
#SCROLL 0.6
1212,
#SCROLL 0.7
1212,
#SCROLL 0.8
1212,
#SCROLL 0.9
1414,
#SCROLL 1
1414,
#SCROLL 1.25
3040304
#SCROLL 1.5
6,
000000000000000000000000000000000008000000000000, //68
#SCROLL 1
121010
#SCROLL 1.5
#GOGOSTART
4
#GOGOEND
#SCROLL 1
1,
021010
#SCROLL 1.5
#GOGOSTART
40,
#GOGOEND
#SCROLL 1
1111,
#SCROLL 1.5
#GOGOSTART
330440
#GOGOEND
#SCROLL 1
10, //72
12122020,
11120
#SCROLL 1.5
#GOGOSTART
400,
#GOGOEND
#SCROLL 1
11212212,
7,
#BARLINEOFF
08, //77
#END

COURSE:Normal
LEVEL:4
BALLOON:2,8,3,3,3,10
SCOREINIT:4590
SCOREDIFF:0
#START
1111,
1002,
1111,
12,
10011001,
11,
5,
0,
000000000000000000000000000000000008000000400000,
0078, //10
101010
#GOGOSTART
4
#GOGOEND
0,
111
#GOGOSTART
4,
#GOGOEND
1111,
#SCROLL 1.2
#GOGOSTART
600000000000000000000000000000000008
#GOGOEND
#SCROLL 1
000000000000, //14
1122,
10110
#GOGOSTART
400,
#GOGOEND
11101110,
600000000000000000000000000000000008000000000000,
4, //19
10001011,
01010000,
10001001,
00001110,
10001002,
02020000,
10101101,
0402, //27
10001011,
01010000,
10001101,
0011,
1212,
1210,
11101020, //34
#GOGOSTART
11,
1110,
22202020,
2220,
11,
1110,
9,
0000090000008000, //42
#GOGOEND
11101010,
1
#SCROLL 1.2
#GOGOSTART
70
#GOGOEND
#SCROLL 1
8,
11101010,
1
#SCROLL 1.2
#GOGOSTART
70
#GOGOEND
#SCROLL 1
8,
1212,
10020020,
11101110,
1011, //50
#GOGOSTART
11101010,
#GOGOEND
20
#SCROLL 1.2
#GOGOSTART
700
#SCROLL 1
080,
11101110,
#GOGOEND
2000
#GOGOSTART
000010010010, //54
10011011,
0212,
10011001,
1011,
10011001,
3, //60
#GOGOEND
#SCROLL 0.5
11,
#SCROLL 0.6
11,
#SCROLL 0.7
11,
#SCROLL 0.8
11,
#SCROLL 0.9
33,
#SCROLL 1
33,
#SCROLL 1.25
3000300
#SCROLL 1.5
6,
000000000000000000000000000000000008000000000000, //68
#SCROLL 1
101010
#GOGOSTART
4
#GOGOEND
0,
111
#GOGOSTART
4,
#GOGOEND
1111,
#SCROLL 1.2
#GOGOSTART
600000000000000000000000000000000008
#GOGOEND
#SCROLL 1
000000000000, //72
1122,
10110
#GOGOSTART
400,
#GOGOEND
11101110,
7,
#BARLINEOFF
08, //77
#END

COURSE:Easy
LEVEL:3
BALLOON:2,7,8
SCOREINIT:7760
SCOREDIFF:0
#START
1110,
1,
1110,
12,
11,
1,
5,
0,
000000000000000000000000000000000000000008000000,
0078, //10
100020
#GOGOSTART
0
#GOGOEND
0,
102
#GOGOSTART
0,
#GOGOEND
1111,
#SCROLL 1.2
#GOGOSTART
600000000000000000000000000008000000
#GOGOEND
#SCROLL 1
000000000000, //14
11,
10000
#GOGOSTART
000,
#GOGOEND
1111,
600000000000000000000000000000000008000000000000,
0, //19
10001001,
0,
10001001,
0,
10001001,
0,
10001002,
0, //27
10001001,
0,
10001001,
0,
11,
500000000000000000000000000008000000000000000000,
1110, //34
#GOGOSTART
11,
1110,
2220,
22,
11,
1110,
9,
0000090000008000, //42
#GOGOEND
1111,
1
#GOGOSTART
00
#GOGOEND
0,
1111,
1
#GOGOSTART
00
#GOGOEND
0,
11,
1,
1111,
12, //50
#GOGOSTART
1111,
#GOGOEND
1
#GOGOSTART
000,
1111,
#GOGOEND
1
#GOGOSTART
020, //54
20002002,
0,
22,
1011,
11,
3, //60
#GOGOEND
#SCROLL 0.5
1,
#SCROLL 0.6
1,
#SCROLL 0.7
1,
#SCROLL 0.8
1,
#SCROLL 0.9
3,
#SCROLL 1
3,
#SCROLL 1.25
3000000
#SCROLL 1.5
6,
000000000000000000000000000000000008000000000000, //68
#SCROLL 1
100020
#GOGOSTART
0
#GOGOEND
0,
102
#GOGOSTART
0,
#GOGOEND
1111,
#SCROLL 1.2
#GOGOSTART
600000000000000000000000000008000000
#GOGOEND
#SCROLL 1
000000000000, //72
11,
10000
#GOGOSTART
000,
#GOGOEND
1111,
7,
#BARLINEOFF
08, //77
#END
