//TJADB Project
TITLE:Turkish March
TITLEJA:トルコ行進曲
SUBTITLE:--Wolfgang Amadeus Mozart
SUBTITLEJA:モーツァルト
BPM:142.475
WAVE:Turkish March.ogg
OFFSET:-1.669
DEMOSTART:1.239 //Shinuchi:
4500/3670/2600/1670/1150

COURSE:Edit
LEVEL:9
BALLOON:
SCOREINIT:380,1210
SCOREDIFF:95
#START
12001200,
#BPMCHANGE 142.09
12121200,
#BPMCHANGE 142.34
21212121,
#BPMCHANGE 141.30
2010201010001122,
#BPMCHANGE 143.31
#SCROLL 0.99
1010221120201122,
#BPMCHANGE 142.30
#SCROLL 1
1212112210201020,
1021202010121020,
#BPMCHANGE 144.88
#SCROLL 0.98
1021201010002020, //8
#BPMCHANGE 138.10
#SCROLL 1.03
1010221210001010,
#BPMCHANGE 142.43
#SCROLL 1
2020112120002020,
#BPMCHANGE 142.70
#SCROLL 0.99
1010221210001010,
#BPMCHANGE 140.43
#SCROLL 1.01
2020112120001122,
#BPMCHANGE 143.43
#SCROLL 0.99
1010221120201122,
#BPMCHANGE 141.68
#SCROLL 1
1212112210112020,
#BPMCHANGE 140.03
#SCROLL 1.01
1010202210102022,
#BPMCHANGE 136.74
#SCROLL 1.04
100000222222100000000000, //16
#BPMCHANGE 138.08
#SCROLL 1.03
#GOGOSTART
3010202030112020,
#BPMCHANGE 139.24
#SCROLL 1.02
3020302030201210,
3010202030112020,
#BPMCHANGE 135.00
#SCROLL 1.05
32334022,
#BPMCHANGE 142.00
#SCROLL 1
1010212110201211,
#BPMCHANGE 140.93
#SCROLL 1.01
1020102010221212,
1010212110201211,
1020111120002222, //24
#GOGOEND
#BPMCHANGE 143.56
#SCROLL 0.99
1212222212122222,
#BPMCHANGE 140.66
#SCROLL 1.01
1212222212122222,
#BPMCHANGE 142.61
#SCROLL 0.99
1212222212122222,
#BPMCHANGE 136.35
#SCROLL 1.04
1222122210002222,
#BPMCHANGE 142.38
#SCROLL 1
1122112211112222,
#BPMCHANGE 142.27
1122112210102222,
#BPMCHANGE 140.66
#SCROLL 1.01
1122112211112222,
#BPMCHANGE 141.52
#SCROLL 1
1122121210002222,
#BPMCHANGE 143.08
#SCROLL 0.99
1212222212122222,
#BPMCHANGE 143.55
1212222212121222,
#BPMCHANGE 142.17
#SCROLL 1
1212122212121222,
#BPMCHANGE 134.82
#SCROLL 1.05
1122121210000000, //36
#BPMCHANGE 138.46
#SCROLL 1.02
#GOGOSTART
3010202030112020,
#BPMCHANGE 137.29
#SCROLL 1.03
3020302030201210,
#BPMCHANGE 139.12
#SCROLL 1.02
3010202030112020,
#BPMCHANGE 136.69
#SCROLL 1.04
32334022,
#BPMCHANGE 139.19
#SCROLL 1.02
1010212110201211,
1020102010221212,
#BPMCHANGE 138.33
1010212110201211,
#BPMCHANGE 135.78
#SCROLL 1.04
1020111120001122, //44
#GOGOEND
#BPMCHANGE 143.83
#SCROLL 0.99
1010221120201122,
#BPMCHANGE 142.66
1212112210201020,
#BPMCHANGE 142.52
1021202010121020,
#BPMCHANGE 136.91
#SCROLL 1.04
1021201010002020,
#BPMCHANGE 139.22
#SCROLL 1.02
2020222220000000,
#BPMCHANGE 137.86
#SCROLL 1.03
00000022,
#BPMCHANGE 138.52
#SCROLL 1.02
2020222220000000,
#BPMCHANGE 138.35
0000000000001122,
#BPMCHANGE 136.97
#SCROLL 1.04
1010221120201122,
#BPMCHANGE 141.63
#SCROLL 1
1212112210201020,
#BPMCHANGE 140.00
#SCROLL 1.01
11221122,
#BPMCHANGE 141.00
100000000000202020202020100000000000200100200100, //56
#BPMCHANGE 135.96
#SCROLL 1.04
#GOGOSTART
1011212110112121,
#BPMCHANGE 140.89
#SCROLL 1.01
1212111210102121,
1011212110112121,
#BPMCHANGE 138.12
#SCROLL 1.03
1121212120002020,
#BPMCHANGE 137.40
1010212110201211,
#BPMCHANGE 138.97
#SCROLL 1.02
1012101210212212,
1010212110201211,
#BPMCHANGE 136.88
#SCROLL 1.04
1020111120002002, //64
#GOGOEND
#BPMCHANGE 134.26
#SCROLL 1.06
11201120,
#BPMCHANGE 139.79
#SCROLL 1.01
1121121120102000,
#BPMCHANGE 133.24
#SCROLL 1.06
11221444,
#BPMCHANGE 129.71
#SCROLL 1.09
1022102010112010,
#BPMCHANGE 134.24
#SCROLL 1.06
2212212210112010,
#BPMCHANGE 133.75
1021202010121020,
#MEASURE 2/4
#BPMCHANGE 135.47
#SCROLL 1.05
30002002,
#MEASURE 4/4
#BPMCHANGE 135.70
#SCROLL 1.04
11201200,
#BPMCHANGE 140.50
#SCROLL 1.01
2222222220000000,
#BPMCHANGE 139.08
#SCROLL 1.02
2020202021221020, //74
#BPMCHANGE 130.05
#SCROLL 1.09
#GOGOSTART
1022102010112010,
#BPMCHANGE 140.03
#SCROLL 1.01
1121121120112010,
#BPMCHANGE 132.14
#SCROLL 1.07
1021202030303040,
#BPMCHANGE 132.00
3022102010112010,
#BPMCHANGE 132.46
1022104030403040,
#BPMCHANGE 112.71
#SCROLL 1.76
3000300430000000,
#GOGOEND
0, //81
#END

COURSE:Oni
LEVEL:7
BALLOON:
SCOREINIT:510,1730
SCOREDIFF:133
#START
11001100,
#BPMCHANGE 142.09
1011201020000000,
#BPMCHANGE 142.34
1022201010222010,
#BPMCHANGE 141.30
1022201010000000,
#BPMCHANGE 143.31
#SCROLL 0.99
11001100,
#BPMCHANGE 142.30
#SCROLL 1
1011201020000000,
1022201010222010,
#BPMCHANGE 144.88
#SCROLL 0.98
1022201010000000, //8
#BPMCHANGE 138.10
#SCROLL 1.03
1010111120000000,
#BPMCHANGE 142.43
#SCROLL 1
2020222210001010,
#BPMCHANGE 142.70
#SCROLL 0.99
1010111120002020,
#BPMCHANGE 140.43
#SCROLL 1.01
2020222210000000,
#BPMCHANGE 143.43
#SCROLL 0.99
11001100,
#BPMCHANGE 141.68
#SCROLL 1
1011201020000000,
#BPMCHANGE 140.03
#SCROLL 1.01
1022201110222011,
#BPMCHANGE 136.74
#SCROLL 1.04
1000222210000000, //16
#BPMCHANGE 138.08
#SCROLL 1.03
#GOGOSTART
1022202010222000,
#BPMCHANGE 139.24
#SCROLL 1.02
1120112011200000,
1022200010222000,
#BPMCHANGE 135.00
#SCROLL 1.05
1022102010000000,
#BPMCHANGE 142.00
#SCROLL 1
32121212,
#BPMCHANGE 140.93
#SCROLL 1.01
1120112011200000,
32121212,
1110111120000000, //24
#GOGOEND
#BPMCHANGE 143.56
#SCROLL 0.99
1000222010202020,
#BPMCHANGE 140.66
#SCROLL 1.01
1000222010202000,
#BPMCHANGE 142.61
#SCROLL 0.99
1000222010201020,
#BPMCHANGE 136.35
#SCROLL 1.04
1020222220000000,
#BPMCHANGE 142.38
#SCROLL 1
1022202010201020,
#BPMCHANGE 142.27
1022202010200000,
#BPMCHANGE 140.66
#SCROLL 1.01
1022202010201020,
#BPMCHANGE 141.52
#SCROLL 1
1010111110000000,
#BPMCHANGE 143.08
#SCROLL 0.99
1000200010222220,
#BPMCHANGE 143.55
1000200022202220,
#BPMCHANGE 142.17
#SCROLL 1
1011101110111010,
#BPMCHANGE 134.82
#SCROLL 1.05
1010111110000000, //36
#BPMCHANGE 138.46
#SCROLL 1.02
#GOGOSTART
1022202010222000,
#BPMCHANGE 137.29
#SCROLL 1.03
1120112011200000,
#BPMCHANGE 139.12
#SCROLL 1.02
1022200010222000,
#BPMCHANGE 136.69
#SCROLL 1.04
1022102010000000,
#BPMCHANGE 139.19
#SCROLL 1.02
32121212,
1120112011200000,
#BPMCHANGE 138.33
32121212,
#BPMCHANGE 135.78
#SCROLL 1.04
1110111120000000, //44
#GOGOEND
#BPMCHANGE 143.83
#SCROLL 0.99
11001100,
#BPMCHANGE 142.66
1011201020000000,
#BPMCHANGE 142.52
1022201010222010,
#BPMCHANGE 136.91
#SCROLL 1.04
1022201010000000,
#BPMCHANGE 139.22
#SCROLL 1.02
1020112210000000,
#BPMCHANGE 137.86
#SCROLL 1.03
2010221120000000,
#BPMCHANGE 138.52
#SCROLL 1.02
1020112210000000,
#BPMCHANGE 138.35
2010221120000000,
#BPMCHANGE 136.97
#SCROLL 1.04
11001100,
#BPMCHANGE 141.63
#SCROLL 1
1011201020000000,
#BPMCHANGE 140.00
#SCROLL 1.01
1022201110222011,
#BPMCHANGE 141.00
1000222210000000, //56
#BPMCHANGE 135.96
#SCROLL 1.04
#GOGOSTART
1022202010222000,
#BPMCHANGE 140.89
#SCROLL 1.01
1120112011200000,
1022200010222000,
#BPMCHANGE 138.12
#SCROLL 1.03
1022102010000000,
#BPMCHANGE 137.40
32121212,
#BPMCHANGE 138.97
#SCROLL 1.02
1120112011200000,
32121212,
#BPMCHANGE 136.88
#SCROLL 1.04
1110111120000000, //64
#GOGOEND
#BPMCHANGE 134.26
#SCROLL 1.06
12201220,
#BPMCHANGE 139.79
#SCROLL 1.01
1110111010202000,
#BPMCHANGE 133.24
#SCROLL 1.06
1020222020000000,
#BPMCHANGE 129.71
#SCROLL 1.09
2121,
#BPMCHANGE 134.24
#SCROLL 1.06
2020222020111000,
#BPMCHANGE 133.75
22221212,
#MEASURE 2/4
#BPMCHANGE 135.47
#SCROLL 1.05
4,
#MEASURE 4/4
#BPMCHANGE 135.70
#SCROLL 1.04
12,
#BPMCHANGE 140.50
#SCROLL 1.01
2020222020000000,
#BPMCHANGE 139.08
#SCROLL 1.02
22222000, //74
#BPMCHANGE 130.05
#SCROLL 1.09
#GOGOSTART
1022202010222020,
#BPMCHANGE 140.03
#SCROLL 1.01
34343000,
#BPMCHANGE 132.14
#SCROLL 1.07
31221212,
#BPMCHANGE 132.00
31221212,
#BPMCHANGE 132.46
31223040,
#BPMCHANGE 112.71
#SCROLL 1.26
3330,
#GOGOEND
0, //81
#END

COURSE:Hard
LEVEL:5
BALLOON:
SCOREINIT:590,2640
SCOREDIFF:170
#START
11,
#BPMCHANGE 142.09
1110,
#BPMCHANGE 142.34
1111,
#BPMCHANGE 141.30
10111000,
#BPMCHANGE 143.31
#SCROLL 0.99
11001100,
#BPMCHANGE 142.30
#SCROLL 1
1110,
10111011,
#BPMCHANGE 144.88
#SCROLL 0.98
10111000, //8
#BPMCHANGE 138.10
#SCROLL 1.03
1010101110000000,
#BPMCHANGE 142.43
#SCROLL 1
2020202220000000,
#BPMCHANGE 142.70
#SCROLL 0.99
1010101110000000,
#BPMCHANGE 140.43
#SCROLL 1.01
2020202220000000,
#BPMCHANGE 143.43
#SCROLL 0.99
11,
#BPMCHANGE 141.68
#SCROLL 1
1110,
#BPMCHANGE 140.03
#SCROLL 1.01
10111010,
#BPMCHANGE 136.74
#SCROLL 1.04
1110, //16
#BPMCHANGE 138.08
#SCROLL 1.03
#GOGOSTART
12001200,
#BPMCHANGE 139.24
#SCROLL 1.02
12121200,
12001200,
#BPMCHANGE 135.00
#SCROLL 1.05
12121000,
#BPMCHANGE 142.00
#SCROLL 1
12021200,
#BPMCHANGE 140.93
#SCROLL 1.01
1020102011100000,
12021200,
1010101110000000, //24
#GOGOEND
#BPMCHANGE 143.56
#SCROLL 0.99
20002200,
#BPMCHANGE 140.66
#SCROLL 1.01
2000000022202000,
#BPMCHANGE 142.61
#SCROLL 0.99
20002200,
#BPMCHANGE 136.35
#SCROLL 1.04
2020202220000000,
#BPMCHANGE 142.38
#SCROLL 1
1011101000100000,
#BPMCHANGE 142.27
1011101000100000,
#BPMCHANGE 140.66
#SCROLL 1.01
1011101000100000,
#BPMCHANGE 141.52
#SCROLL 1
1010101110000000,
#BPMCHANGE 143.08
#SCROLL 0.99
2000000020002022,
#BPMCHANGE 143.55
2000002022200000,
#BPMCHANGE 142.17
#SCROLL 1
20220220,
#BPMCHANGE 134.82
#SCROLL 1.05
2020202220000000, //36
#BPMCHANGE 138.46
#SCROLL 1.02
#GOGOSTART
12001200,
#BPMCHANGE 137.29
#SCROLL 1.03
12121200,
#BPMCHANGE 139.12
#SCROLL 1.02
12001200,
#BPMCHANGE 136.69
#SCROLL 1.04
12121000,
#BPMCHANGE 139.19
#SCROLL 1.02
12021200,
1020102011100000,
#BPMCHANGE 138.33
12021200,
#BPMCHANGE 135.78
#SCROLL 1.04
1010101110000000, //44
#GOGOEND
#BPMCHANGE 143.83
#SCROLL 0.99
11,
#BPMCHANGE 142.66
1110,
#BPMCHANGE 142.52
10111010,
#BPMCHANGE 136.91
#SCROLL 1.04
10111000,
#BPMCHANGE 139.22
#SCROLL 1.02
1010101110000000,
#BPMCHANGE 137.86
#SCROLL 1.03
2020202220000000,
#BPMCHANGE 138.52
#SCROLL 1.02
1010101110000000,
#BPMCHANGE 138.35
2020202220000000,
#BPMCHANGE 136.97
#SCROLL 1.04
11,
#BPMCHANGE 141.63
#SCROLL 1
1110,
#BPMCHANGE 140.00
#SCROLL 1.01
10111010,
#BPMCHANGE 141.00
1110, //56
#BPMCHANGE 135.96
#SCROLL 1.04
#GOGOSTART
12001200,
#BPMCHANGE 140.89
#SCROLL 1.01
12121200,
12001200,
#BPMCHANGE 138.12
#SCROLL 1.03
12121000,
#BPMCHANGE 137.40
12021200,
#BPMCHANGE 138.97
#SCROLL 1.02
1020102011100000,
12021200,
#BPMCHANGE 136.88
#SCROLL 1.04
1020101110000000, //64
#GOGOEND
#BPMCHANGE 134.26
#SCROLL 1.06
02200220,
#BPMCHANGE 139.79
#SCROLL 1.01
2220,
#BPMCHANGE 133.24
#SCROLL 1.06
22222000,
#BPMCHANGE 129.71
#SCROLL 1.09
2121,
#BPMCHANGE 134.24
#SCROLL 1.06
2220222020000000,
#BPMCHANGE 133.75
20112010,
#MEASURE 2/4
#BPMCHANGE 135.47
#SCROLL 1.05
4,
#MEASURE 4/4
#BPMCHANGE 135.70
#SCROLL 1.04
11,
#BPMCHANGE 140.50
#SCROLL 1.01
2220222020000000,
#BPMCHANGE 139.08
#SCROLL 1.02
22222000, //74
#BPMCHANGE 130.05
#SCROLL 1.09
#GOGOSTART
3434,
#BPMCHANGE 140.03
#SCROLL 1.01
10221000,
#BPMCHANGE 132.14
#SCROLL 1.07
1000222010002000,
#BPMCHANGE 132.00
1000222010002000,
#BPMCHANGE 132.46
1000222010201020,
#BPMCHANGE 112.71
#SCROLL 1.26
1130,
#GOGOEND
0, //81
#END

COURSE:Normal
LEVEL:4
BALLOON:
SCOREINIT:610,3730
SCOREDIFF:190
#START
11,
#BPMCHANGE 142.09
1110,
#BPMCHANGE 142.34
1111,
#BPMCHANGE 141.30
1110,
#BPMCHANGE 143.31
#SCROLL 0.99
11,
#BPMCHANGE 142.30
#SCROLL 1
1110,
1111,
#BPMCHANGE 144.88
#SCROLL 0.98
1110, //8
#BPMCHANGE 138.10
#SCROLL 1.03
10111000,
#BPMCHANGE 142.43
#SCROLL 1
20222000,
#BPMCHANGE 142.70
#SCROLL 0.99
10111000,
#BPMCHANGE 140.43
#SCROLL 1.01
20222000,
#BPMCHANGE 143.43
#SCROLL 0.99
11,
#BPMCHANGE 141.68
#SCROLL 1
1110,
#BPMCHANGE 140.03
#SCROLL 1.01
1111,
#BPMCHANGE 136.74
#SCROLL 1.04
1110, //16
#BPMCHANGE 138.08
#SCROLL 1.03
#GOGOSTART
10111010,
#BPMCHANGE 139.24
#SCROLL 1.02
10111000,
10111010,
#BPMCHANGE 135.00
#SCROLL 1.05
10111000,
#BPMCHANGE 142.00
#SCROLL 1
10111020,
#BPMCHANGE 140.93
#SCROLL 1.01
10111000,
10111020,
1120, //24
#GOGOEND
#BPMCHANGE 143.56
#SCROLL 0.99
10001100,
#BPMCHANGE 140.66
#SCROLL 1.01
10001110,
#BPMCHANGE 142.61
#SCROLL 0.99
12,
#BPMCHANGE 136.35
#SCROLL 1.04
500000000000000000000000000008000000000000000000,
#BPMCHANGE 142.38
#SCROLL 1
10110000,
#BPMCHANGE 142.27
10111000,
#BPMCHANGE 140.66
#SCROLL 1.01
10110000,
#BPMCHANGE 141.52
#SCROLL 1
500000000000000000000008000000000000000000000000,
#BPMCHANGE 143.08
#SCROLL 0.99
12,
#BPMCHANGE 143.55
12,
#BPMCHANGE 142.17
#SCROLL 1
2220,
#BPMCHANGE 134.82
#SCROLL 1.05
1110, //36
#BPMCHANGE 138.46
#SCROLL 1.02
#GOGOSTART
10111010,
#BPMCHANGE 137.29
#SCROLL 1.03
10111000,
#BPMCHANGE 139.12
#SCROLL 1.02
10111010,
#BPMCHANGE 136.69
#SCROLL 1.04
1120,
#BPMCHANGE 139.19
#SCROLL 1.02
10111010,
10111000,
#BPMCHANGE 138.33
10111010,
#BPMCHANGE 135.78
#SCROLL 1.04
1120, //44
#GOGOEND
#BPMCHANGE 143.83
#SCROLL 0.99
12,
#BPMCHANGE 142.66
1110,
#BPMCHANGE 142.52
1111,
#BPMCHANGE 136.91
#SCROLL 1.04
1120,
#BPMCHANGE 139.22
#SCROLL 1.02
10111000,
#BPMCHANGE 137.86
#SCROLL 1.03
20222000,
#BPMCHANGE 138.52
#SCROLL 1.02
10111000,
#BPMCHANGE 138.35
20222000,
#BPMCHANGE 136.97
#SCROLL 1.04
12,
#BPMCHANGE 141.63
#SCROLL 1
1120,
#BPMCHANGE 140.00
#SCROLL 1.01
1212,
#BPMCHANGE 141.00
500000000000000000000008000000000000000000000000, //56
#BPMCHANGE 135.96
#SCROLL 1.04
#GOGOSTART
10111010,
#BPMCHANGE 140.89
#SCROLL 1.01
10111000,
10111010,
#BPMCHANGE 138.12
#SCROLL 1.03
1120,
#BPMCHANGE 137.40
10111010,
#BPMCHANGE 138.97
#SCROLL 1.02
10111000,
10111010,
#BPMCHANGE 136.88
#SCROLL 1.04
1120, //64
#GOGOEND
#BPMCHANGE 134.26
#SCROLL 1.06
0202,
#BPMCHANGE 139.79
#SCROLL 1.01
2220,
#BPMCHANGE 133.24
#SCROLL 1.06
2210,
#BPMCHANGE 129.71
#SCROLL 1.09
0101,
#BPMCHANGE 134.24
#SCROLL 1.06
2220,
#BPMCHANGE 133.75
1022,
#MEASURE 2/4
#BPMCHANGE 135.47
#SCROLL 1.05
4,
#MEASURE 4/4
#BPMCHANGE 135.70
#SCROLL 1.04
12,
#BPMCHANGE 140.50
#SCROLL 1.01
2220,
#BPMCHANGE 139.08
#SCROLL 1.02
#GOGOSTART
2210, //74
#BPMCHANGE 130.05
#SCROLL 1.09
34,
#BPMCHANGE 140.03
#SCROLL 1.01
1210,
#BPMCHANGE 132.14
#SCROLL 1.07
1212,
#BPMCHANGE 132.00
10222020,
#BPMCHANGE 132.46
10222020,
#BPMCHANGE 112.71
#SCROLL 1.26
1130,
#GOGOEND
0, //81
#END

COURSE:Easy
LEVEL:3
BALLOON:
SCOREINIT:480,4950
SCOREDIFF:153
#START
11,
#BPMCHANGE 142.09
1110,
#BPMCHANGE 142.34
11,
#BPMCHANGE 141.30
1110,
#BPMCHANGE 143.31
#SCROLL 0.99
11,
#BPMCHANGE 142.30
#SCROLL 1
1110,
11,
#BPMCHANGE 144.88
#SCROLL 0.98
1110, //8
#BPMCHANGE 138.10
#SCROLL 1.03
1110,
#BPMCHANGE 142.43
#SCROLL 1
2220,
#BPMCHANGE 142.70
#SCROLL 0.99
1110,
#BPMCHANGE 140.43
#SCROLL 1.01
2220,
#BPMCHANGE 143.43
#SCROLL 0.99
11,
#BPMCHANGE 141.68
#SCROLL 1
1110,
#BPMCHANGE 140.03
#SCROLL 1.01
1111,
#BPMCHANGE 136.74
#SCROLL 1.04
1110, //16
#BPMCHANGE 138.08
#SCROLL 1.03
#GOGOSTART
12,
#BPMCHANGE 139.24
#SCROLL 1.02
1110,
12,
#BPMCHANGE 135.00
#SCROLL 1.05
1110,
#BPMCHANGE 142.00
#SCROLL 1
34,
#BPMCHANGE 140.93
#SCROLL 1.01
1110,
34,
1110, //24
#GOGOEND
#BPMCHANGE 143.56
#SCROLL 0.99
12,
#BPMCHANGE 140.66
#SCROLL 1.01
12,
#BPMCHANGE 142.61
#SCROLL 0.99
12,
#BPMCHANGE 136.35
#SCROLL 1.04
1110,
#BPMCHANGE 142.38
#SCROLL 1
1011,
#BPMCHANGE 142.27
11,
#BPMCHANGE 140.66
#SCROLL 1.01
1011,
#BPMCHANGE 141.52
#SCROLL 1
500000000000000000000000000008000000000000000000,
#BPMCHANGE 143.08
#SCROLL 0.99
12,
#BPMCHANGE 143.55
12,
#BPMCHANGE 142.17
#SCROLL 1
12,
#BPMCHANGE 134.82
#SCROLL 1.05
1110, //36
#BPMCHANGE 138.46
#SCROLL 1.02
#GOGOSTART
12,
#BPMCHANGE 137.29
#SCROLL 1.03
1110,
#BPMCHANGE 139.12
#SCROLL 1.02
12,
#BPMCHANGE 136.69
#SCROLL 1.04
1110,
#BPMCHANGE 139.19
#SCROLL 1.02
34,
1110,
#BPMCHANGE 138.33
34,
#BPMCHANGE 135.78
#SCROLL 1.04
1110, //44
#GOGOEND
#BPMCHANGE 143.83
#SCROLL 0.99
12,
#BPMCHANGE 142.66
1110,
#BPMCHANGE 142.52
12,
#BPMCHANGE 136.91
#SCROLL 1.04
1110,
#BPMCHANGE 139.22
#SCROLL 1.02
1110,
#BPMCHANGE 137.86
#SCROLL 1.03
2220,
#BPMCHANGE 138.52
#SCROLL 1.02
1110,
#BPMCHANGE 138.35
2220,
#BPMCHANGE 136.97
#SCROLL 1.04
12,
#BPMCHANGE 141.63
#SCROLL 1
1110,
#BPMCHANGE 140.00
#SCROLL 1.01
12,
#BPMCHANGE 141.00
1110, //56
#BPMCHANGE 135.96
#SCROLL 1.04
#GOGOSTART
12,
#BPMCHANGE 140.89
#SCROLL 1.01
1110,
12,
#BPMCHANGE 138.12
#SCROLL 1.03
1110,
#BPMCHANGE 137.40
34,
#BPMCHANGE 138.97
#SCROLL 1.02
2220,
34,
#BPMCHANGE 136.88
#SCROLL 1.04
2220, //64
#GOGOEND
#BPMCHANGE 134.26
#SCROLL 1.06
11,
#BPMCHANGE 139.79
#SCROLL 1.01
2220,
#BPMCHANGE 133.24
#SCROLL 1.06
1110,
#BPMCHANGE 129.71
#SCROLL 1.09
11,
#BPMCHANGE 134.24
#SCROLL 1.06
1110,
#BPMCHANGE 133.75
1011,
#MEASURE 2/4
#BPMCHANGE 135.47
#SCROLL 1.05
3,
#MEASURE 4/4
#BPMCHANGE 135.70
#SCROLL 1.04
11,
#BPMCHANGE 140.50
#SCROLL 1.01
2220,
#BPMCHANGE 139.08
#SCROLL 1.02
1110, //74
#BPMCHANGE 130.05
#SCROLL 1.09
#GOGOSTART
34,
#BPMCHANGE 140.03
#SCROLL 1.01
1110,
#BPMCHANGE 132.14
#SCROLL 1.07
3011,
#BPMCHANGE 132.00
34,
#BPMCHANGE 132.46
3022,
#BPMCHANGE 112.71
#SCROLL 1.26
23,
#GOGOEND
0, //81
#END
