//TJADB Project
TITLE:Little White Witch
TITLEJA:リトルホワイトウィッチ
SUBTITLE:--Yuichiro Tsukagoshi (NanosizeMir) & GIW feat. Kaori Aihara
SUBTITLEJA:塚越雄一朗(NanosizeMir) & 祇羽 feat. 愛原圭織
BPM:246
WAVE:Little White Witch.ogg
OFFSET:-1.093
DEMOSTART:44.532 //shinuchi:
6840/3960/2130/1300

COURSE:Oni
LEVEL:9
BALLOON:22,10
SCOREINIT:460,1360
SCOREDIFF:110
#START
#MEASURE 1/16
#SCROLL 0.5
#GOGOSTART
3, //1
#GOGOEND
#MEASURE 1/8
#SCROLL 7.92
0,
#SCROLL 7.77
0,
#SCROLL 7.62
0,
#SCROLL 7.46
0,
#SCROLL 7.31
0,
#SCROLL 7.15
0,
#SCROLL 7
0,
#SCROLL 6.85
0,
#SCROLL 6.69
0,
#SCROLL 6.54
0,
#SCROLL 6.38
0,
#SCROLL 6.23
0,
#SCROLL 6.08
0,
#SCROLL 5.92
0,
#SCROLL 5.77
0,
#SCROLL 5.62
0,
#SCROLL 5.46
0,
#SCROLL 5.31
0,
#SCROLL 5.15
0,
#SCROLL 5
0,
#SCROLL 4.85
0,
#SCROLL 4.69
0,
#SCROLL 4.54
0,
#SCROLL 4.38
0,
#SCROLL 4.23
0, //26
#MEASURE 13/16
#SCROLL 4.08
0
#SCROLL 0.5
100020201000, //27
#MEASURE 1/16
#SCROLL 0.5
#GOGOSTART
3, //28
#GOGOEND
#MEASURE 1/8
#SCROLL 7.92
0,
#SCROLL 7.77
0,
#SCROLL 7.62
0,
#SCROLL 7.46
0,
#SCROLL 7.31
0,
#SCROLL 7.15
0,
#SCROLL 7
0,
#SCROLL 6.85
0,
#SCROLL 6.69
0,
#SCROLL 6.54
0,
#SCROLL 6.38
0,
#SCROLL 6.23
0,
#SCROLL 6.08
0,
#SCROLL 5.92
0,
#SCROLL 5.77
0,
#SCROLL 5.62
0
#SCROLL 3
6, //44
#SCROLL 5.46
0,
#SCROLL 5.31
0,
#SCROLL 5.15
0,
#SCROLL 5
0,
#SCROLL 4.85
0,
#SCROLL 4.69
0,
#SCROLL 4.54
0,
#SCROLL 4.38
00000
#SCROLL 3
8,
#SCROLL 4.23
0,
#SCROLL 4.08
0,
#SCROLL 4
0,
#MEASURE 9/16
0
#SCROLL 0.5
40000000, //56
#MEASURE 8/4
1011021121101201,
10001010001010001010201110201010,
10001010001110102010102000101000,
10201010201010002220001110001110,
0030001121101101,
20001010001010002010201011111010,
20001010001110002010102000101000,
3434, //64
1012001120102012,
#MEASURE 5/4
0210110020,
#MEASURE 3/4
#SCROLL 1
222, //67
#MEASURE 8/4
#SCROLL 0.5
1001201211202102,
0010100000200000
#SCROLL 0.75
2000111120000000,
#SCROLL 0.5
1000201010102022,
1020201010201012, //71
10001000200011111000100010002222,
1111001122002122,
00002220102011102010102000201020,
1111001122002122,
500000000000000000000000000000000000000000000008000000000000000000000000400000000000000000000000, //76
10000000000011111000002000001000,
10000000000011111000002000001000,
10100010000011112000002000001000,
100100100000200100100100100010001000200010001000,
100000000000000000000000000000000000100100200200100000000000000020000000000000002000000000000000,
100000000000000000000000000000000000100100200200200000000000000020000000000000001000000000000000,
10100010200010100010200020101120,
0120211020002000, //84
#MEASURE 4/4
#SCROLL 1
#GOGOSTART
1000200010112000,
10210121,
1000200010222000,
11210121,
1000200010112000,
10210221,
1000200010222010,
1110201020100000, //92
#GOGOEND
#MEASURE 8/4
#SCROLL 0.5
10002010001020002010001010002210,
00101000102000202022202010200020,
1021012021011021,
11101000102010202022102000202020, //96
10002010002010001010001020112020,
00202000102000222022201020202220,
500000000000000000000000000000000000000000000000000000000000000000000000000000000000000000000008,
0
#SCROLL 2
#GOGOSTART
3, //100
#GOGOEND
#SCROLL 0.5
1011001121101101,
20001010001020200022202020101010, //102
#BARLINEOFF
#MEASURE 1/4
0, //103
#BARLINEON
#MEASURE 1/16
#SCROLL 2
#GOGOSTART
3,
#GOGOEND
#SCROLL 1.91
0,
#SCROLL 1.82
0,
#SCROLL 1.73
0,
#SCROLL 1.64
0,
#SCROLL 1.55
0,
#SCROLL 1.45
0,
#SCROLL 1.36
0,
#SCROLL 1.27
0,
#SCROLL 1.18
0,
#SCROLL 1.09
0,
#SCROLL 1
0, //115
#BARLINEOFF
#MEASURE 4/4
#SCROLL 0.5
20110112, //116
#MEASURE 8/4
20101022201010102220001110001110,
#BARLINEON
00003000000011102000201000102000,
10100010201022201000101020101020,
0111211202101021,
700000000000000000000000000000000000000000000000000000000000000000000000000000000000000000000080,
000333, //122
300000000000000000000000000000000000000000000000500000000000000000000000000000000000000008000000, //123
#MEASURE 1/16
#SCROLL 8
0,
#SCROLL 7.53
0,
#SCROLL 7.07
0,
#SCROLL 6.6
0,
#SCROLL 6.13
0,
#SCROLL 5.67
0,
#SCROLL 5.2
0,
#SCROLL 4.73
0,
#SCROLL 4.27
0,
#SCROLL 3.8
0,
#SCROLL 3.33
0,
#SCROLL 2.87
0,
#SCROLL 2.4
0,
#SCROLL 1.93
0,
#SCROLL 1.47
0,
#SCROLL 1
0, //139
#BARLINEOFF
#MEASURE 4/4
#SCROLL 0.5
40040040, //140
#BARLINEON
#MEASURE 8/4
40000000000000222000111010002000,
#BARLINEOFF
500000000000000000000000000000000008000000000000100000001000000010000000200000001000000010000000,
#BARLINEON
100000000000000000000000000000000000100100200200100000000000000020000000000000002000000000000000,
100000000000000000000000000000000000100100200200200000000000000020000000000000001000000000000000,
10100010200010100010200020101110,
20221000111010001000000020000000, //146
#MEASURE 4/4
#SCROLL 1
#GOGOSTART
1000200010112000,
10210121,
1000200010222000,
11210121,
1000200010112000,
10210221,
1011202010102010,
1110201020101010, //154
#BARLINEOFF
10120210,
#BARLINEON
12112012,
01201211,
20120122,
1011201000112000,
1010201000112010,
#MEASURE 8/4
1010201011111111
#GOGOEND
#SCROLL 2
3000000000000000, //161
#SCROLL 0.5
00
#GOGOSTART
30021121101101,
20001010201010002011101011111010,
20001010201110102000101020101020,
1211211211211217,
000000000000000000000000000000000000000000000008
#GOGOEND
000000000000000000000000000000000000000000000000, //166
#BARLINEOFF
#MEASURE 4/4
0, //167
#END

COURSE:Hard
LEVEL:6
BALLOON:6,6,16,9
SCOREINIT:540,2300
SCOREDIFF:140
#START
#MEASURE 1/16
#SCROLL 0.5
#GOGOSTART
3, //1
#GOGOEND
#MEASURE 1/8
#SCROLL 7.92
0,
#SCROLL 7.77
0,
#SCROLL 7.62
0,
#SCROLL 7.46
0,
#SCROLL 7.31
0,
#SCROLL 7.15
0,
#SCROLL 7
0,
#SCROLL 6.85
0,
#SCROLL 6.69
0,
#SCROLL 6.54
0,
#SCROLL 6.38
0,
#SCROLL 6.23
0,
#SCROLL 6.08
0,
#SCROLL 5.92
0,
#SCROLL 5.77
0,
#SCROLL 5.62
0,
#SCROLL 5.46
0,
#SCROLL 5.31
0,
#SCROLL 5.15
0,
#SCROLL 5
0,
#SCROLL 4.85
0,
#SCROLL 4.69
0,
#SCROLL 4.54
0,
#SCROLL 4.38
0,
#SCROLL 4.23
0, //26
#MEASURE 13/16
#SCROLL 4.08
0
#SCROLL 0.5
100010101000, //27
#MEASURE 1/16
#SCROLL 0.5
#GOGOSTART
3, //28
#GOGOEND
#MEASURE 1/8
#SCROLL 7.92
0,
#SCROLL 7.77
0,
#SCROLL 7.62
0,
#SCROLL 7.46
0,
#SCROLL 7.31
0,
#SCROLL 7.15
0,
#SCROLL 7
0,
#SCROLL 6.85
0,
#SCROLL 6.69
0,
#SCROLL 6.54
0,
#SCROLL 6.38
0,
#SCROLL 6.23
0,
#SCROLL 6.08
0,
#SCROLL 5.92
0,
#SCROLL 5.77
0,
#SCROLL 5.62
0
#SCROLL 3
6, //44
#SCROLL 5.46
0,
#SCROLL 5.31
0,
#SCROLL 5.15
0,
#SCROLL 5
0,
#SCROLL 4.85
0,
#SCROLL 4.69
0,
#SCROLL 4.54
0,
#SCROLL 4.38
00000
#SCROLL 3
8,
#SCROLL 4.23
0,
#SCROLL 4.08
0,
#SCROLL 4
0,
#MEASURE 9/16
0
#SCROLL 0.5
40000000, //56
#MEASURE 8/4
1011001020101000,
1011001011101010,
1011001020101000,
10001010000010007000000000080000,
0030001010101100,
2010110010200200,
2010001010101100,
3434, //64
1002001010102011,
#MEASURE 5/4
0010010020,
#MEASURE 3/4
#SCROLL 1
220, //67
#MEASURE 8/4
#SCROLL 0.5
1000100010102202,
00100200
#SCROLL 0.75
20202000,
#SCROLL 0.5
10201120,
10201120, //71
1010201100101020,
1110001110002220,
0022200010220200,
1110001110002220,
500000000000000000000000000000000000000000000008000000000000000000000000400000000000000000000000, //76
1000001010020010,
1000001010020010,
1000001020020010,
100100100000200000100000100010001000100010001000,
100122,
100221,
1000100000102001,
0020220010002000, //84
#MEASURE 4/4
#SCROLL 1
#GOGOSTART
10201120,
10210120,
10201120,
10210120,
10201120,
10220110,
10201120,
11101110, //92
#GOGOEND
#MEASURE 8/4
#SCROLL 0.5
1011022002001002,
0010020020220000,
1011022001001002,
0010020020220220, //96
1011022002001002,
0010020020020220,
500000000000000000000000000000000000000000000000000000000000000000000000000000000000000000000008,
0
#SCROLL 2
#GOGOSTART
3, //100
#GOGOEND
#SCROLL 0.5
1011001020101000,
2011002020000200, //102
#BARLINEOFF
#MEASURE 1/4
0, //103
#BARLINEON
#MEASURE 1/16
#SCROLL 2
#GOGOSTART
3,
#GOGOEND
#SCROLL 1.91
0,
#SCROLL 1.82
0,
#SCROLL 1.73
0,
#SCROLL 1.64
0,
#SCROLL 1.55
0,
#SCROLL 1.45
0,
#SCROLL 1.36
0,
#SCROLL 1.27
0,
#SCROLL 1.18
0,
#SCROLL 1.09
0,
#SCROLL 1
0, //115
#BARLINEOFF
#MEASURE 4/4
#SCROLL 0.5
20100100, //116
#MEASURE 8/4
20001000001000007000000000080000,
#BARLINEON
0030001010100200,
2000101100202022,
0010101100101022,
700000000000000000000000000000000000000000000008,
000333, //122
300000000000000000000000000000000000000000000000500000000000000000000000000000000000000008000000, //123
#MEASURE 1/16
#SCROLL 8
0,
#SCROLL 7.53
0,
#SCROLL 7.07
0,
#SCROLL 6.6
0,
#SCROLL 6.13
0,
#SCROLL 5.67
0,
#SCROLL 5.2
0,
#SCROLL 4.73
0,
#SCROLL 4.27
0,
#SCROLL 3.8
0,
#SCROLL 3.33
0,
#SCROLL 2.87
0,
#SCROLL 2.4
0,
#SCROLL 1.93
0,
#SCROLL 1.47
0,
#SCROLL 1
0, //139
#BARLINEOFF
#MEASURE 4/4
#SCROLL 0.5
40040040, //140
#BARLINEON
#MEASURE 8/4
40002220,
#BARLINEOFF
500000000000000000000000000000000008000000000000100000001000000010000000100000001000000010000000,
#BARLINEON
100122,
100221,
1000101100102002,
0010220010002000, //146
#MEASURE 4/4
#SCROLL 1
#GOGOSTART
10201120,
10210120,
10201120,
10210120,
10201120,
10110220,
10201120,
11101110, //154
#BARLINEOFF
10110220,
#BARLINEON
11002002,
00200200,
20020020,
10210020,
10210020,
#MEASURE 8/4
11101111
#GOGOEND
#SCROLL 1.5
30000000, //161
#SCROLL 0.5
00
#GOGOSTART
30110010101011,
1010110110200200,
2010010010200200,
2010010010100107,
000000000000000000000000000000000000000000000008
#GOGOEND
000000000000000000000000000000000000000000000000, //166
#BARLINEOFF
#MEASURE 4/4
0, //167
#END

COURSE:Normal
LEVEL:5
BALLOON:5,12,5,12,7
SCOREINIT:800,4510
SCOREDIFF:228
#START
#MEASURE 1/16
#SCROLL 0.5
#GOGOSTART
3, //1
#GOGOEND
#MEASURE 1/8
#SCROLL 7.92
0,
#SCROLL 7.77
0,
#SCROLL 7.62
0,
#SCROLL 7.46
0,
#SCROLL 7.31
0,
#SCROLL 7.15
0,
#SCROLL 7
0,
#SCROLL 6.85
0,
#SCROLL 6.69
0,
#SCROLL 6.54
0,
#SCROLL 6.38
0,
#SCROLL 6.23
0,
#SCROLL 6.08
0,
#SCROLL 5.92
0,
#SCROLL 5.77
0,
#SCROLL 5.62
0,
#SCROLL 5.46
0,
#SCROLL 5.31
0,
#SCROLL 5.15
0,
#SCROLL 5
0,
#SCROLL 4.85
0,
#SCROLL 4.69
0,
#SCROLL 4.54
0,
#SCROLL 4.38
0,
#SCROLL 4.23
0, //26
#MEASURE 13/16
#SCROLL 4.08
0
#SCROLL 0.5
000000000000, //27
#MEASURE 1/16
#SCROLL 0.5
#GOGOSTART
3, //28
#GOGOEND
#MEASURE 1/8
#SCROLL 7.92
0,
#SCROLL 7.77
0,
#SCROLL 7.62
0,
#SCROLL 7.46
0,
#SCROLL 7.31
0,
#SCROLL 7.15
0,
#SCROLL 7
0,
#SCROLL 6.85
0,
#SCROLL 6.69
0,
#SCROLL 6.54
0,
#SCROLL 6.38
0,
#SCROLL 6.23
0,
#SCROLL 6.08
0,
#SCROLL 5.92
0,
#SCROLL 5.77
0,
#SCROLL 5.62
0
#SCROLL 3
6, //44
#SCROLL 5.46
0,
#SCROLL 5.31
0,
#SCROLL 5.15
0,
#SCROLL 5
0,
#SCROLL 4.85
0,
#SCROLL 4.69
0,
#SCROLL 4.54
0,
#SCROLL 4.38
00000
#SCROLL 3
8,
#SCROLL 4.23
0,
#SCROLL 4.08
0,
#SCROLL 4
0,
#MEASURE 9/16
0
#SCROLL 0.5
40000000, //56
#MEASURE 8/4
1001001010001000,
1001001010000000,
1001001010001000,
10000010000010007000000000080000,
0030000000100100,
0010010020200100,
22011101,
3434, //64
1001001010002005,
#MEASURE 5/4
000000000000000000000000000000000000000000000008000000000000,
#MEASURE 3/4
#SCROLL 1
0, //67
#MEASURE 8/4
#SCROLL 0.5
1000100010101005,
000000000000000000000000000000000000000000000008
#SCROLL 0.75
000000000000000000000000000000000000000000000000,
#SCROLL 0.5
1212,
1212, //71
10220110,
11011022,
02201000,
11011022,
500000000000000000000000000000000000000000000008000000000000000000000000400000000000000000000000, //76
1000000010010000,
1000000010010000,
1000000020020000,
1211,
100111,
100222,
9009,
8, //84
#MEASURE 4/4
#SCROLL 1
#GOGOSTART
1,
10010010,
1,
10010010,
12,
10010010,
500000000000000000000000000000000000000000000008,
0, //92
#GOGOEND
#MEASURE 8/4
#SCROLL 0.5
1001002000001000,
01002000,
1001002000001000,
01002000, //96
1001002000001000,
01002002,
500000000000000000000000000000000000000000000000000000000000000000000000000000000000000000000008,
0
#SCROLL 1
#GOGOSTART
3, //100
#GOGOEND
#SCROLL 0.5
1001001010001000,
1001001010000000, //102
#BARLINEOFF
#MEASURE 1/4
0, //103
#BARLINEON
#MEASURE 1/16
#SCROLL 1
#GOGOSTART
3,
#GOGOEND
#SCROLL 1.91
0,
#SCROLL 1.82
0,
#SCROLL 1.73
0,
#SCROLL 1.64
0,
#SCROLL 1.55
0,
#SCROLL 1.45
0,
#SCROLL 1.36
0,
#SCROLL 1.27
0,
#SCROLL 1.18
0,
#SCROLL 1.09
0,
#SCROLL 1
0, //115
#BARLINEOFF
#MEASURE 4/4
#SCROLL 0.5
1100, //116
#MEASURE 8/4
10001000000000007000000000080000,
#BARLINEON
0030000000000100,
500000000000000000000000000000000000000000000008000000000000000000000000000000000000000000000000,
11101020,
700000000000000000000000000000000000000000000008,
000333, //122
300000000000000000000000000000000000000000000000500000000000000000000000000000000000000008000000, //123
#MEASURE 1/16
#SCROLL 8
0,
#SCROLL 7.53
0,
#SCROLL 7.07
0,
#SCROLL 6.6
0,
#SCROLL 6.13
0,
#SCROLL 5.67
0,
#SCROLL 5.2
0,
#SCROLL 4.73
0,
#SCROLL 4.27
0,
#SCROLL 3.8
0,
#SCROLL 3.33
0,
#SCROLL 2.87
0,
#SCROLL 2.4
0,
#SCROLL 1.93
0,
#SCROLL 1.47
0,
#SCROLL 1
0, //139
#BARLINEOFF
#MEASURE 4/4
#SCROLL 0.5
40040040, //140
#BARLINEON
#MEASURE 8/4
4022,
#BARLINEOFF
500000000000000000000000000000000000000000000008000000000000000000000000000000000000000000000000,
#BARLINEON
100111,
100222,
10110110,
11101020, //146
#MEASURE 4/4
#SCROLL 1
#GOGOSTART
1,
10010010,
1,
10010010,
12,
10010010,
500000000000000000000000000000000000000000000008,
0, //154
#BARLINEOFF
10010010,
#BARLINEON
00002002,
00200200,
2,
10010010,
10010010,
#MEASURE 8/4
500000000000000000000000000000000000000000000008
#GOGOEND
#SCROLL 2
000000000000000000000000000000000000000000000000, //161
#SCROLL 0.5
0
#GOGOSTART
3000100,
01010100,
10010020,
1000100010001007,
000000000000000000000000000000000000000000000008
#GOGOEND
000000000000000000000000000000000000000000000000, //166
#BARLINEOFF
#MEASURE 4/4
0, //167
#END

COURSE:Easy
LEVEL:4
BALLOON:4,9,4,9,5
SCOREINIT:820,7910
SCOREDIFF:315
#START
#MEASURE 1/16
#SCROLL 0.5
#GOGOSTART
3, //1
#GOGOEND
#MEASURE 1/8
#SCROLL 7.92
0,
#SCROLL 7.77
0,
#SCROLL 7.62
0,
#SCROLL 7.46
0,
#SCROLL 7.31
0,
#SCROLL 7.15
0,
#SCROLL 7
0,
#SCROLL 6.85
0,
#SCROLL 6.69
0,
#SCROLL 6.54
0,
#SCROLL 6.38
0,
#SCROLL 6.23
0,
#SCROLL 6.08
0,
#SCROLL 5.92
0,
#SCROLL 5.77
0,
#SCROLL 5.62
0,
#SCROLL 5.46
0,
#SCROLL 5.31
0,
#SCROLL 5.15
0,
#SCROLL 5
0,
#SCROLL 4.85
0,
#SCROLL 4.69
0,
#SCROLL 4.54
0,
#SCROLL 4.38
0,
#SCROLL 4.23
0, //26
#MEASURE 13/16
#SCROLL 4.08
0
#SCROLL 0.5
000000000000, //27
#MEASURE 1/16
#SCROLL 0.5
#GOGOSTART
3, //28
#GOGOEND
#MEASURE 1/8
#SCROLL 7.92
0,
#SCROLL 7.77
0,
#SCROLL 7.62
0,
#SCROLL 7.46
0,
#SCROLL 7.31
0,
#SCROLL 7.15
0,
#SCROLL 7
0,
#SCROLL 6.85
0,
#SCROLL 6.69
0,
#SCROLL 6.54
0,
#SCROLL 6.38
0,
#SCROLL 6.23
0,
#SCROLL 6.08
0,
#SCROLL 5.92
0,
#SCROLL 5.77
0,
#SCROLL 5.62
0
#SCROLL 3
6, //44
#SCROLL 5.46
0,
#SCROLL 5.31
0,
#SCROLL 5.15
0,
#SCROLL 5
0,
#SCROLL 4.85
0,
#SCROLL 4.69
0,
#SCROLL 4.54
0,
#SCROLL 4.38
00000
#SCROLL 3
8,
#SCROLL 4.23
0,
#SCROLL 4.08
0,
#SCROLL 4
0,
#MEASURE 9/16
0
#SCROLL 0.5
40000000, //56
#MEASURE 8/4
10010010,
10010000,
10010010,
10000000000010007000000000080000,
03000100,
01000200,
500000000000000000000000000000000000000000000000000000000008000000000000000000000000000000000000,
33, //64
1000000020002005,
#MEASURE 5/4
000000000000000000000000000000000000000000000008000000000000,
#MEASURE 3/4
#SCROLL 1
0, //67
#MEASURE 8/4
#SCROLL 0.5
1000100010000005,
000000000000000000000000000000000000000000000008
#SCROLL 0.75
000000000000000000000000000000000000000000000000,
#SCROLL 0.5
1202,
1202, //71
1202,
10010020,
02002000,
10010020,
500000000000000000000000000000000000000000000000000000000008000000000000000000000000000000000000, //76
11,
22,
11,
1011,
12,
12,
9009,
8, //84
#MEASURE 4/4
#SCROLL 1
#GOGOSTART
1,
10010000,
1,
10010000,
1,
2,
500000000000000000000000000000000000000000000008,
0, //92
#GOGOEND
#MEASURE 8/4
#SCROLL 0.5
10010020,
02000000,
10010020,
02000000, //96
10010020,
02000000,
500000000000000000000000000000000000000000000000000000000000000000000000000000000000000000000008,
0
#SCROLL 1
#GOGOSTART
3, //100
#GOGOEND
#SCROLL 0.5
10010010,
20020000, //102
#BARLINEOFF
#MEASURE 1/4
0, //103
#BARLINEON
#MEASURE 1/16
#SCROLL 1
#GOGOSTART
3,
#GOGOEND
#SCROLL 1.91
0,
#SCROLL 1.82
0,
#SCROLL 1.73
0,
#SCROLL 1.64
0,
#SCROLL 1.55
0,
#SCROLL 1.45
0,
#SCROLL 1.36
0,
#SCROLL 1.27
0,
#SCROLL 1.18
0,
#SCROLL 1.09
0,
#SCROLL 1
0, //115
#BARLINEOFF
#MEASURE 4/4
#SCROLL 0.5
1, //116
#MEASURE 8/4
10000000000000007000000000080000,
#BARLINEON
03000100,
500000000000000000000000000000000000000000000008000000000000000000000000000000000000000000000000,
12,
700000000000000000000000000000000000000000000008,
03, //122
300000000000000000000000000000000000000000000000500000000000000000000000000000000000000008000000, //123
#MEASURE 1/16
#SCROLL 8
0,
#SCROLL 7.53
0,
#SCROLL 7.07
0,
#SCROLL 6.6
0,
#SCROLL 6.13
0,
#SCROLL 5.67
0,
#SCROLL 5.2
0,
#SCROLL 4.73
0,
#SCROLL 4.27
0,
#SCROLL 3.8
0,
#SCROLL 3.33
0,
#SCROLL 2.87
0,
#SCROLL 2.4
0,
#SCROLL 1.93
0,
#SCROLL 1.47
0,
#SCROLL 1
0, //139
#BARLINEOFF
#MEASURE 4/4
#SCROLL 0.5
3, //140
#BARLINEON
#MEASURE 8/4
3022,
#BARLINEOFF
500000000000000000000000000000000000000000000008000000000000000000000000000000000000000000000000,
#BARLINEON
11,
12,
1201,
1110, //146
#MEASURE 4/4
#SCROLL 1
#GOGOSTART
1,
10010000,
1,
10010000,
1,
2,
500000000000000000000000000000000000000000000008,
0, //154
#BARLINEOFF
1001,
#BARLINEON
02,
0200,
2,
1,
1,
#MEASURE 8/4
500000000000000000000000000000000000000000000008
#GOGOEND
#SCROLL 2
000000000000000000000000000000000000000000000000, //161
#SCROLL 0.5
0
#GOGOSTART
3000000,
01000000,
12,
1000000010000007,
000000000000000000000000000000000000000000000008
#GOGOEND
000000000000000000000000000000000000000000000000, //166
#BARLINEOFF
#MEASURE 4/4
0, //167
#END
