//TJADB Project
TITLE:Mahoushiki Tousou Kitan ☄
TITLEJA:魔法式逃走奇譚☆ミ
SUBTITLE:--MOES feat. Kaiho Erika
BPM:164
WAVE:Mahoushiki Tousou Kitan.ogg
OFFSET:-1.694
DEMOSTART:39.732

COURSE:Oni
LEVEL:9
BALLOON:3,3,3,3,3,3,6,10,5,5,5,5
SCOREINIT:490
SCOREDIFF:115
#START
102200102200,
3334,
1022708010227080,
1022708020020000,
2222111122221111,
1010100010222210,
1022708010227080,
1022708020020000,
2222111122221111,
1010100022222222,
1000101202202020,
1000101202202020,
1000101202202020,
1010102120102000,
1000101202202020,
1000101202202020,
1000101202202020,
1111222700008000,
102001100201,
102001111201,
102001100201,
100020000010101010220222,
100000000000000000100000200000000000500008000000,
100000000000000000100000200000000000500008000000,
10010010,
100000100000100000100000200000200200500008000000,
#GOGOSTART
1020112010122010,
1020102212022010,
1020112010122010,
1020112210202000,
300000003000000000300000100000000200200000100000,
1022102010122020,
1020102210122011,
12700080,
#GOGOEND
1001001021001001,
2012012010002000,
10011020,
4004004070008000,
1001001021001001,
2012012010002022,
1001001010000000,
1001001010021001,
1020221220102022,
1020221220120020,
1020221220102222,
1020221020102020,
1020221220102022,
1020221220120020,
1022201022122020,
1020221020102000,
1001201020102000,
100000000100200000100000200000500000000008000000,
1001201020102000,
100000000100200000100000200000500000000008000000,
1001201021101020,
1001201021101020,
1001102011201020,
111222111122,
102112002102,
100020101020101120100020,
102112002102,
102002700800,
1001201020101101,
1001107000802010,
1001201120112222,
100100200200100100200200500000000000000008000000,
#GOGOSTART
1020111011022012,
1020121011022010,
1020111011022010,
2112112210202000,
300030000300000000400000,
1212121211021020,
1212121211221122,
1112221110700080,
#GOGOEND
4212,
1000202210112020,
1000200010012010,
1002100120012022,
1212,
1212,
1112221122211122,
500000000000000000000000000000000000000008000000,
1010200210102002,
111222111222,
3003000000000000,
#END

COURSE:Hard
LEVEL:7
BALLOON:5,8,4,4
SCOREINIT:400
SCOREDIFF:100
#START
102200102200,
3334,
100000200000500008000000100000200000500008000000,
100000200000500008000000200000000200000000000000,
2220111022201110,
1010100010222010,
100000200000500008000000100000200000500008000000,
100000200000500008000000200000000200000000000000,
2220111022201110,
1010100022202220,
1000100202202020,
1000100202202020,
1000100202202020,
11102120,
1000100202202020,
1000100202202020,
1000100202202020,
1110200700008000,
102001100201,
102001100201,
102001100201,
102001100200,
100000000000000000100000200000000000500008000000,
100000000000000000100000200000000000500008000000,
10010010,
100000100000100000100000100000100100500008000000,//26
#GOGOSTART
1020111010222010,
1020102220022010,
1020111010222010,
1020111010202000,
300000003000000000300000100000000200200000100000,
1022202010111020,
1020102220222011,
12700080,//34
#GOGOEND
1001001010002000,
1001001010002000,
1001001010002000,
4004004070008000,
1001001010002000,
1001001010002022,
2001001010000000,
1001001010022001,
12212122,
1020201020020020,
12212122,
12212122,
12212122,
1020201020020020,
1022201022202020,
1020222020102000,
1022201020102000,
100000200200200000100000200000500000000008000000,
1022201020102000,
100000100000100100100000200000500000000008000000,
1022201020101020,
1022201020102000,
1022202000201020,
222222222222,
102102002102,
102102102102,
102102002102,
102001700800,
1001001020101101,
100000000100000000500000000008000000200000100000,
1001001020111022,
200000200000100000200000500000000000000008000000,//66
#GOGOSTART
1020111011022011,
1020111011022000,
1020111011022010,
2002002010202000,
300030000300000000400000,
1110111011011000,
1110111011011020,
100100100000200200200000500000000008000000000000,//74
#GOGOEND
4212,
1000202220111020,
1000200010011010,
1002200110022020,
1212,
1212,
1102201022011020,
500000000000000000000000000000000000000008000000,
11201120,
111100111100,
3003000000000000,
,
,
#END

COURSE:Normal
LEVEL:6
BALLOON:6,6,3,3,6,6,16
#START
11,
3330,
1111,
1120,
11101110,
11102000,
1111,
1120,
11101110,
11102020,
10100220,
10100220,
10100220,
11102220,
10100220,
10100220,
10100220,
100000100000100000000500008000000000000000000000,
7082,
101001000200,
7082,
101001000200,
10011020,
10011020,
10011020,
100000100000100000100000500000000000000008000000,//26
#GOGOSTART
10201011,
10202220,
10201011,
10202220,
300030000300000000400000,
10202220,
10201011,
1220,//34
#GOGOEND
10011020,
10011020,
10011020,
20022000,
10011020,
10011020,
10011020,
1001001010000000,
100000100000500008000000100000100000500008000000,
100000100000500008000000700000000000800000000000,
11101110,
11102220,
100000100000500008000000100000100000500008000000,
100000100000500008000000700000000000800000000000,
11111110,
10101110,
2222,
2222,
2222,
2222,
11102020,
11102020,
11102020,
100000100000100000000500000000000000000008000000,
7082,
101001000200,
7082,
101001000200,
10010110,
10010110,
1212,
100000000000100000000000500000000000000008000000,//66
#GOGOSTART
10201011,
10202220,
10201011,
10202220,
300030000300000000400000,
10202220,
10201011,
1220,//74
#GOGOEND
4212,
1212,
1212,
1122,
1212,
1212,
500000000000000008000000500000000000000008000000,
11111111,
7,
00000800,
3003000000000000,
,
,
#END

COURSE:Easy
LEVEL:4
BALLOON:4,4,2,2,4,4,15
#START
11,
3330,
1111,
1110,
1111,
1110,
1111,
1110,
1111,
100000000000100000000000500000000008000000000000,
1102,
2201,
1102,
2220,
1102,
2201,
1102,
200000000000000000000500008000000000000000000000,
78,
500000000000000008000000000000000000000000000000,
78,
500000000000000008000000000000000000000000000000,
1011,
1011,
1011,
100000000000100000000000500000000000000008000000,//26
#GOGOSTART
1111,
12,
1111,
12,
600000000000000000000000000000000008000000000000,
12,
1111,
12,//34
#GOGOEND
11,
22,
11,
22,
11,
22,
11,
500000000000000000000008000000000000000000000000,
500000000000000008000000500000000000000008000000,
500000000000000008000000700000000000800000000000,
500000000000000008000000500000000000000008000000,
100000000000100000000000500000000000000008000000,
500000000000000008000000500000000000000008000000,
500000000000000008000000700000000000800000000000,
1111,
1110,
2222,
2222,
2222,
2220,
1022,
2011,
1022,
200000000000000000000500000000000000000008000000,
78,
500000000000000008000000000000000000000000000000,
78,
500000000000000008000000000000000000000000000000,
10010010,
10010010,
11,
100000000000100000000000500000000000000008000000,//66
#GOGOSTART
1111,
12,
1111,
12,
600000000000000000000000000000000008000000000000,
12,
1111,
12,//74
#GOGOEND
41,
12,
12,
12,
1110,
2220,
11,
500000000000000000000000000000000000000008000000,
7,
00000800,
3003000000000000,
,
,
#END
