//TJADB Project
TITLE:Chrimbo!
TITLEJA:くりんぼ!
SUBTITLE:--Kawagen Kollagen(BNSI) feat. yuzuki
SUBTITLEJA:Kawagen Kollagen(BNSI) feat. yuzuki
BPM:136
WAVE:Chrimbo.ogg
OFFSET:-2.581
DEMOSTART:43.071

COURSE:Oni
LEVEL:8
BALLOON:20
SCOREINIT:1870
SCOREDIFF:0
#START
0,
0,
0,
22220022,
20022220,
20002220,
220000000000000000000000, //7
0010200210102202,
1010201000102210,
01211020,
1000201110102100,
000000100000202020200100100000200000000000100000,
1010201010102220,
200000000000202020100000000000100000200000100100,
2021221000122210, //15
12220122,
10012211,
20002002,
10020202,
12220021,
20012211,
2000200020202022,
200000200200200111100000, //23
#GOGOSTART
1112021011221020,
1120101210202000,
1122101111202010,
1111200022102000,
1112102011121020,
1111200022221002,
1112021020002110,
1112012011102000, //31
#GOGOEND
#MEASURE 9/8
#BPMCHANGE 153
#SCROLL 0.89
111222212,
111222212,
111222212,
211212221,
100100202020202222,
100100202020202222,
100100200000202222,
700000008, //39
#MEASURE 1/16
#BPMCHANGE 136
#SCROLL 2
0,
0,
0,
0,
0,
0,
0,
0, //47
#MEASURE 4/4
#SCROLL 1
100000000100000000202020200000000000100000100000,
100000200100000200100000200000000000000000202020,
1010100020110020,
100000200100202020200000200000000000200000100000,
100000000100200000202020200000000200100000200000,
100000200100200100100000200000000200100000202020,
1002021020110120,
#MEASURE 3/4
112110200000, //55
#MEASURE 1/32
#SCROLL 4
0,
0,
0,
0,
0,
0,
0,
0, //63
#MEASURE 4/4
#SCROLL 1
#GOGOSTART
1112021011221020,
1120101210202000,
1122101111202010,
1111200022102000,
1112102011121020,
1111200022221002,
1112021020002110,
100000200100000200100200200000100100200020001000, //71
#GOGOEND
#BPMCHANGE 130
#SCROLL 1.05
101202101202,
102102102022,
101202101022,
101200111022,
102120102120,
122100211211,
201202100222,
102102101101, //79
#MEASURE 2/4
#BPMCHANGE 100
#SCROLL 1.36
110202,
#BPMCHANGE 80
#SCROLL 1.7
102,
#MEASURE 1/4
#BPMCHANGE 60
#SCROLL 2.27
1,
22,
222,
2222, //85
#MEASURE 5/16
#BPMCHANGE 75
#SCROLL 1.81
22222,
#MEASURE 1/4
#BPMCHANGE 60
#SCROLL 2.27
222222,
#MEASURE 4/4
222220000000000000000000000000000000000000000000,
#SCROLL 1
0, //89
#END

COURSE:Hard
LEVEL:5
BALLOON:15,60
SCOREINIT:2980
SCOREDIFF:0
#START
0,
0,
0,
22220022,
20022220,
20002220,
2, //7
0010100110002001,
1010101000202220,
01111020,
10110120,
0010100110200010,
1010201010002220,
2000222000000000,
1000111000000000, //15
22222000,
20022002,
22202022,
20020000,
22222022,
20220022,
20002220,
2, //23
#GOGOSTART
1001102010002000,
12121220,
11110120,
1000200022202000,
1001102010011020,
1001100020022001,
1001001020001110,
1011011010002000, //31
#GOGOEND
#MEASURE 9/8
#BPMCHANGE 153
#SCROLL 0.89
200222200,
000222200,
000222200,
200202220,
000222200,
000222200,
022,
700000008, //39
#MEASURE 1/16
#BPMCHANGE 136
#SCROLL 2
0,
0,
0,
0,
0,
0,
0,
0, //47
#MEASURE 4/4
#SCROLL 1
1001001020001010,
1011011020000000,
11102102,
1011000020000000,
1001101020001010,
1011011020000000,
1002011020110220,
#MEASURE 3/4
101101100000, //55
#MEASURE 1/32
#SCROLL 4
0,
0,
0,
0,
0,
0,
0,
0, //63
#MEASURE 4/4
#SCROLL 1
#GOGOSTART
1001102010002000,
12121220,
11110120,
1000200022202000,
1001102010011020,
1001100040022001,
1001001020001110,
1011011010000000, //71
#GOGOEND
#BPMCHANGE 130
#SCROLL 1.05
102200102200,
102201102020,
101002202020,
100200111022,
222122,
111000000222,
202000000201,
101100101100, //79
#MEASURE 2/4
#BPMCHANGE 100
#SCROLL 1.36
110202,
#BPMCHANGE 80
#SCROLL 1.7
202,
#MEASURE 1/4
#BPMCHANGE 60
#SCROLL 2.27
9,
0,
0,
0, //85
#MEASURE 5/16
#BPMCHANGE 75
#SCROLL 1.81
09,
#MEASURE 1/4
#BPMCHANGE 60
#SCROLL 2.27
0,
#MEASURE 4/4
8,
#SCROLL 1
0, //89
#END

COURSE:Normal
LEVEL:5
BALLOON:9,36
SCOREINIT:4600
SCOREDIFF:0
#START
0,
0,
0,
20220022,
20022000,
20002220,
2, //7
0112,
11010020,
01101020,
10110020,
01101100,
11011020,
20220000,
10110000, //15
22,
20002002,
2002,
500000000000000000000000000000000008000000000000,
00202022,
20020020,
2002,
500000000000000000000000000000000008000000000000, //23
#GOGOSTART
1001001010002000,
10102220,
10110110,
10202220,
10111011,
1122,
1001000020001010,
1001002020002000, //31
#GOGOEND
#MEASURE 9/8
#BPMCHANGE 153
#SCROLL 0.89
000220200,
000220200,
000220200,
200200220,
000220200,
000220200,
022,
700000008, //39
#MEASURE 1/16
#BPMCHANGE 136
#SCROLL 2
0,
0,
0,
0,
0,
0,
0,
0, //47
#MEASURE 4/4
#SCROLL 1
1021,
1120,
1102,
1120,
1021,
1121,
1021,
#MEASURE 3/4
1110, //55
#MEASURE 1/32
#SCROLL 4
0,
0,
0,
0,
0,
0,
0,
0, //63
#MEASURE 4/4
#SCROLL 1
#GOGOSTART
1001001010002000,
10102220,
10110110,
10202220,
10111011,
1142,
1001000020001010,
1001002020000000, //71
#GOGOEND
#BPMCHANGE 130
#SCROLL 1.05
1202,
1212,
1122,
1210,
111111,
1202,
1002,
1111, //79
#MEASURE 2/4
#BPMCHANGE 100
#SCROLL 1.36
12,
#BPMCHANGE 80
#SCROLL 1.7
2,
#MEASURE 1/4
#BPMCHANGE 60
#SCROLL 2.27
9,
0,
0,
0, //85
#MEASURE 5/16
#BPMCHANGE 75
#SCROLL 1.81
09,
#MEASURE 1/4
#BPMCHANGE 60
#SCROLL 2.27
0,
#MEASURE 4/4
8,
#SCROLL 1
0, //89
#END

COURSE:Easy
LEVEL:3
BALLOON:8,30
SCOREINIT:7280
SCOREDIFF:0
#START
0,
0,
0,
2202,
22,
2022,
2, //7
0110,
10010010,
0110,
10010010,
0110,
10010010,
1100,
2200, //15
22,
22,
2002,
2,
0220,
20020020,
2002,
2, //23
#GOGOSTART
11,
1110,
11,
2220,
1111,
12,
1001,
1022, //31
#GOGOEND
#MEASURE 9/8
#BPMCHANGE 153
#SCROLL 0.89
022,
022,
022,
202,
022,
022,
022,
700000008, //39
#MEASURE 1/16
#BPMCHANGE 136
#SCROLL 2
0,
0,
0,
0,
0,
0,
0,
0, //47
#MEASURE 4/4
#SCROLL 1
1011,
12,
11,
1110,
1011,
12,
12,
#MEASURE 3/4
110, //55
#MEASURE 1/32
#SCROLL 4
0,
0,
0,
0,
0,
0,
0,
0, //63
#MEASURE 4/4
#SCROLL 1
#GOGOSTART
33,
3330,
33,
4440,
3333,
34,
3003,
32, //71
#GOGOEND
#BPMCHANGE 130
#SCROLL 1.05
0202,
0202,
0102,
0110,
0202,
0202,
0102,
1111, //79
#MEASURE 2/4
#BPMCHANGE 100
#SCROLL 1.36
1,
#BPMCHANGE 80
#SCROLL 1.7
2,
#MEASURE 1/4
#BPMCHANGE 60
#SCROLL 2.27
9,
0,
0,
0, //85
#MEASURE 5/16
#BPMCHANGE 75
#SCROLL 1.81
09,
#MEASURE 1/4
#BPMCHANGE 60
#SCROLL 2.27
0,
#MEASURE 4/4
8,
#SCROLL 1
0, //89
#END
