//TJADB Project
TITLE:Kawaii Dake Ja Dame Desuka?
TITLEJA:かわいいだけじゃだめですか?
SUBTITLE:--CUTIE STREET
SUBTITLEJA:CUTIE STREET
BPM:172
WAVE:Kawaii Dake Ja Dame Desuka.ogg
OFFSET:-3.417
DEMOSTART:70.365 //shinuchi:
8080/6010/3750/2340

COURSE:Oni
LEVEL:6
BALLOON:22,8,22
SCOREINIT:730,2670
SCOREDIFF:198
#START
12,
12,
10102003,
0330,
10110212,
10110212,
1022201010222030,
03333044,
7,
08, //10
1011101000201020,
1011101000201020,
1110202010202010,
0022201020102020,
1011101000201020,
1011101000201022,
2011102220102010,
03333000, //18
1011102010201020,
01211201,
1011102010201020,
01212440,
1011102010201020,
01120200,
1011102010201020,
3330, //26
1011102010201020,
01121201,
1011102010201020,
1124,
30000200,
30000200,
3232,
3000300030222000, //34
111222,
500000000000000000000008000000002000000020000000,
111222,
500000000000000000000008000000000000200000000000,
101101100200,
100100200202,
10211020,
3222, //42
30000220,
30000220,
1022201110222010,
0010201020112000,
5,
000000000000000000000000000000000000000000008000,
0,
0003, //50
#GOGOSTART
1011101000201020,
1011101000201020,
1011102010111020,
01202112,
1011101000201020,
1011101000201020,
1022201010222070,
08, //58
1011101000201020,
1011101000201020,
1011102010111020,
01202112,
#GOGOEND
30000400,
30030240,
#GOGOSTART
1022201010222030,
03333044, //66
#GOGOEND
7,
08,
0,
0,
0,
0,
0, //73
#END

COURSE:Hard
LEVEL:4
BALLOON:11,23,7,17
SCOREINIT:870,4470
SCOREDIFF:263
#START
12,
12,
10102003,
0330,
10100220,
10100220,
11201023,
03333000,
6,
000000000000000008000000000000000000000000000000, //10
10110220,
10110220,
10201021,
01202020,
10110220,
10110220,
70000008,
03333000, //18
10201011,
01102200,
10201011,
01102000,
10201011,
01110200,
1212,
3330, //26
10201011,
01102200,
10201120,
1220,
30000200,
30000200,
3232,
3330, //34
202200,
2,
202200,
2,
2220,
2220,
44,
4, //42
10000220,
10000220,
10201021,
01212020,
9,
09,
8,
0, //50
#GOGOSTART
10110120,
10110120,
10201021,
01202000,
10110120,
10110120,
10211027,
08, //58
10110120,
10110120,
10201021,
01202000,
#GOGOEND
30000400,
30000220,
#GOGOSTART
11201023,
03333040, //66
#GOGOEND
9,
09008000,
0,
0,
0,
0,
0, //73
#END

COURSE:Normal
LEVEL:3
BALLOON:8,12,10
SCOREINIT:990,7000
SCOREDIFF:380
#START
1,
1,
11,
1110,
1,
1,
10101003,
03303000,
6,
000000000000000008000000000000000000000000000000, //10
10110000,
10110000,
1111,
2220,
10110000,
10110000,
70000008,
0, //18
1110,
12,
1110,
2220,
1110,
12,
1110,
3330, //26
1110,
12,
1110,
2220,
1,
1,
1111,
3330, //34
22,
2,
22,
2,
2220,
2220,
44,
4, //42
1,
1,
1111,
1110,
5,
000000000000000000000000000000000000000000008000,
0,
0, //50
#GOGOSTART
10110000,
10110000,
1111,
2220,
10110000,
10110000,
7,
08, //58
10110000,
10110000,
1111,
2220,
#GOGOEND
3,
4,
#GOGOSTART
10101003,
03303000, //66
#GOGOEND
9,
09008000,
0,
0,
0,
0,
0, //73
#END

COURSE:Easy
LEVEL:2
BALLOON:7,10,8
SCOREINIT:850,9660
SCOREDIFF:443
#START
1,
1,
1,
1110,
1,
1,
11,
3330,
6,
000000000000000008000000000000000000000000000000, //10
1100,
1100,
11,
1110,
1100,
1100,
70000008,
0, //18
11,
1,
11,
1110,
11,
1,
11,
3330, //26
11,
1,
11,
1110,
1,
1,
11,
3330, //34
2,
2,
2,
2,
22,
2,
44,
4, //42
1,
1,
11,
1110,
5,
000000000000000000000000000000000000000000008000,
0,
0, //50
#GOGOSTART
1100,
1100,
11,
1110,
1100,
1100,
7,
08, //58
1100,
1100,
11,
1110,
#GOGOEND
3,
4,
#GOGOSTART
11,
3330, //66
#GOGOEND
9,
09008000,
0,
0,
0,
0,
0, //73
#END
