//TJADB Project
TITLE:Argent Memories
TITLEJA:Argent Memories
SUBTITLE:--K Masera feat. YuusA
SUBTITLEJA:
BPM:152
WAVE:Argent Memories.ogg
OFFSET:-3.285
DEMOSTART:47.488 //shinuchi:
6620/4090/2780/1400

COURSE:Oni
LEVEL:9
BALLOON:11,11,16,18,14,23,11,11,18,45
SCOREINIT:510,1550
SCOREDIFF:113
#START
22020202,
22020202,
1120211211202112,
1120400000000000,
1000002000102002,
1001102000102002,
1000002000102100,
1001102002102002, //8
1000002000102002,
1001102000102002,
1000002000102002,
100000100000000000200000000200100100200000001010,
1000201200102000,
1000201200102022,
1000201200102020,
1000201200102022, //16
1110201200102020,
1000201200102022,
1000201200102020,
1000200222111120,
700000000000000000000000080000000000100100100000,
1212221010100010,
0020211212102112,
1010202020021010,
700000000000000000000000080000000000200200200000,
100200100000200100000200100200100000202020000100,
1002002001102002,
1002002122112000, //28
#GOGOSTART
1101202101102010,
1101202101102022,
1011202101102022,
1101202101102210,
1111202070000000,
000000000000080000000000100100100000200200200000,
1111202070000000,
000000000000000000080000200200100100100100200000, //36
1110202101102010,
1110202102102020,
1011202101102022,
1110222102111022,
1111202070000000,
0008000022201110,
1111202070000000,
0000000000080000, //44
#GOGOEND
21210221,
02100011,
2010101110100011,
21200212,
1010101010102211,
1,
00200121,
1202,
2000200120202210, //53
700000000000000000000000080000000000200200200000,
100200100000200100000100100100100000202020000100,
1010200110101112,
1112221112221112,
1112221112221112,
100100100200200200202020200000001010100000000000, //59
#GOGOSTART
1101201210102102,
1101201210112110,
1101201210102102,
1201202101201110,
1111202070000000,
0800000011102120,
1111202070000000,
000000000000000000080000100100200200200200100000, //67
1110201211102012,
1110210112112210,
1101201112102012,
1210212021112011,
1111201110102120,
1010210121101120,
1111202012102012,
1022101021121120, //75
#GOGOEND
30030040,
3003003003004004,
0007,
0, //79
0,
080000000000000000000000000000000000000000000000,
0,
0, //83
#END

COURSE:Hard
LEVEL:7
BALLOON:9,9,13,15,11,19,9,49,9,15,11,13,33
SCOREINIT:840,3160
SCOREDIFF:175
#START
0,
0,
0000200200002002,
0400,
10020120,
1001002000102000,
10020120,
1001002002002000, //8
10020120,
1001002000102000,
10020120,
11020200,
1000200200102000,
1000200200102000,
1000200200102000,
1000200200102000, //16
1000200200102000,
1000200200102000,
1000200200102000,
1000200220111000,
700000000000000000000000080000000000100000100000,
11210101,
000000200000500000000000000000000000000000000008,
0000000010020020,
700000000000000000000000080000000000100000100000,
12211205,
000000000008000000200000500000000000000000000000,
000000000000000000000000000000000008000000000000, //28
#GOGOSTART
1110200100102000,
1110200100102000,
1110200100102000,
1110200100102220,
500000000008000000200000700000000000000000000000,
000000000000080000000000100000100000200000200000,
500000000008000000200000700000000000000000000000,
000000000000000000080000000000000000000000000000, //36
1110200100102000,
1110200100102000,
1110200100102000,
1110200100222020,
500000000008000000200000700000000000000000000000,
0008000020201010,
500000000008000000200000700000000000000000000000,
0000000000080000, //44
#GOGOEND
20210201,
02100011,
21110101,
21200000,
1010101010102220,
1,
00200120,
1202,
0000200010020020, //53
700000000000000000000000080000000000100000100000,
12211205,
000000000008000000200000700000000000000000000000,
0,
0,
000000000000000000000000080000000000000000000000, //59
#GOGOSTART
1110200200102000,
1110200200102000,
1110200200102000,
1110200100201110,
500000000008000000200000700000000000000000000000,
0800000010101020,
500000000008000000200000700000000000000000000000,
000000000000000000080000000000000000000000000000, //67
1110200110102000,
1110200011101110,
1110200110102000,
1110100022202000,
500000000008000000200000700000000000000000000000,
0008000020101020,
500000000008000000200000700000000000000000000000,
000000000000080000000000200200200000200200200000, //75
#GOGOEND
500000000008000000500000000008000000500008000000,
30030040,
0009,
0,
000000000009000000000000,
080000000000000000000000000000000000000000000000,
0,
0, //83
#END

COURSE:Normal
LEVEL:6
BALLOON:6,6,9,10,7,13,6,32,6,10,7,9,22
SCOREINIT:910,4820
SCOREDIFF:215
#START
0,
0,
0202,
0400,
10020020,
1001002000002000,
10020020,
1001002000002000, //8
10020020,
1001002000002000,
10020020,
11020020,
1000200200002000,
1000200200002000,
1000200200002000,
1000200200002000, //16
1000200200002000,
1000200200002000,
1000200200002000,
1221,
700000000000000000000000080000000000100000000000,
11010101,
000000500000000000000000000000000000000000000008,
0000000020020020,
700000000000000000000000080000000000200000000000,
22020205,
000000000008000000000000500000000000000000000000,
000000000000000000000000000000000008000000000000, //28
#GOGOSTART
1001001000202000,
1001001000202000,
1001001000202000,
1000202000200200,
500000000008000000000000700000000000000000000000,
000000000000080000000000300000000000400000000000,
600000000008000000000000700000000000000000000000,
000000000000000000080000000000000000000000000000, //36
1001001000202000,
1000200002002000,
1001001000202000,
22020110,
500000000008000000000000700000000000000000000000,
0008000040003000,
600000000008000000000000700000000000000000000000,
0000000000080000, //44
#GOGOEND
20010201,
0101,
20110101,
01100000,
10101110,
3,
0202,
0202,
0000200020020020, //53
700000000000000000000000080000000000200000000000,
22020205,
000000000008000000000000700000000000000000000000,
0,
0,
000000000000000000000000080000000000000000000000, //59
#GOGOSTART
1001001000202000,
1001001000202000,
1001001000202000,
1001001000200020,
500000000008000000000000700000000000000000000000,
0800000030003000,
600000000008000000000000700000000000000000000000,
000000000000000000080000000000000000000000000000, //67
1001001000202000,
1001001000202000,
1001001000202000,
2002002000101000,
500000000008000000000000700000000000000000000000,
0008000040004000,
600000000008000000000000700000000000000000000000,
000000000000080000000000200000200000200000200000, //75
#GOGOEND
500000000008000000500000000008000000500008000000,
30030040,
0009,
0,
000000000009000000000000,
080000000000000000000000000000000000000000000000,
0,
0, //83
#END

COURSE:Easy
LEVEL:4
BALLOON:4,4,6,7,5,10,4,25,5,7,5,6,18
SCOREINIT:810,7810
SCOREDIFF:188
#START
0,
0,
0200,
0400,
10020000,
10020000,
10020000,
10020000, //8
10020000,
10020000,
10020000,
22020000,
1000000200002000,
1000000200002000,
1000000200002000,
1000000200002000, //16
1000000200002000,
1000000200002000,
1000000200002000,
12,
700000000000000000000000080000000000100000000000,
10010101,
000000500000000000000000000000000000000000000008,
0000000020020000,
700000000000000000000000080000000000200000000000,
20202005,
000000000008000000000000500000000000000000000000,
000000000000000000000000000000000008000000000000, //28
#GOGOSTART
10010020,
10010020,
10010020,
10110000,
500000000008000000000000700000000000000000000000,
000000000000080000000000300000000000000000000000,
600000000008000000000000700000000000000000000000,
000000000000000000080000000000000000000000000000, //36
10010020,
10010020,
10010020,
20020020,
500000000008000000000000700000000000000000000000,
0008000040000000,
600000000008000000000000700000000000000000000000,
0000000000080000, //44
#GOGOEND
20000101,
0100,
00010101,
0300,
0,
1,
00000100,
1,
0000000020020000, //53
700000000000000000000000080000000000200000000000,
20202005,
000000000008000000000000700000000000000000000000,
0,
0,
000000000000000000000000080000000000000000000000, //59
#GOGOSTART
10010020,
10010020,
10010020,
20020020,
500000000008000000000000700000000000000000000000,
0800000030000000,
600000000008000000000000700000000000000000000000,
000000000000000000080000000000000000000000000000, //67
10010020,
10010020,
10010020,
20020020,
500000000008000000000000700000000000000000000000,
0008000040000000,
600000000008000000000000700000000000000000000000,
000000000000080000000000200000000000000000000000, //75
#GOGOEND
500000000008000000500000000008000000500008000000,
30030040,
0009,
0,
000000000009000000000000,
080000000000000000000000000000000000000000000000,
0,
0, //83
#END
