//TJADB Project
TITLE:Toro-Ika 2000
TITLEJA:トロいか2000
SUBTITLE:--
SUBTITLEJA:
BPM:312
WAVE:Toroika 2000.ogg
OFFSET:-1.293
DEMOSTART:5.904 //Shinuchi:
3890/2750/1810/1080

COURSE:Oni
LEVEL:10
BALLOON:3,2,8,876
SCOREINIT:430,1140
SCOREDIFF:98
#START
#GOGOSTART
1111111111111111,
1111111111111111,
1111111111111111,
1111111111111111,
#GOGOEND
#BARLINEOFF
#BPMCHANGE 156
#SCROLL 0.5
4, //5
#BARLINEON
#SCROLL 1
1001201020000000,
1001201020000000,
1001201020000000,
1001201020001000, //9
1001201020000000,
1001201020000000,
1001201020102000,
50000008
#SCROLL 5
5008
#SCROLL 10
6008, //13
#SCROLL 1
1011201020102000,
1011201020101000,
1011201020102000,
10112010
#SCROLL 3.7
#GOGOSTART
00121120, //17
#GOGOEND
#SCROLL 1
1011201020102000,
1011201020101000,
1011201020102000,
#MEASURE 5/4
500000000000000000000800
#SCROLL 5
500000000800
#BPMCHANGE 312
680680680680680680680000, //21
#MEASURE 8/4
#SCROLL 1
2220222202202220,
1101111110110110,
2220222202022220,
1101022210221120, //25
10101010100011100011100010101000,
22200020202000200020002000222000,
10101000101011100020002020202020,
1112211212112122, //29
#MEASURE 4/4
#BPMCHANGE 156
0011101000700008,
0022202000112070,
800112200000
#SCROLL 7
000112200000,
#SCROLL 1
10210120,
#MEASURE 8/4
#BPMCHANGE 312
1111
#SCROLL 1.25
1111
#SCROLL 1.5
1111
#SCROLL 1.75
1111
#SCROLL 2
1111
#SCROLL 2.25
1111
#SCROLL 2.5
1111
#SCROLL 2.75
1111,
#BARLINEOFF
#MEASURE 4/4
#BPMCHANGE 156
#SCROLL 0.5
4, //35
#BARLINEON
100000101010100000100000
#SCROLL 1
#GOGOSTART
200000
#GOGOEND
#SCROLL 0.5
100100100000100000,
000000101010100000100000
#SCROLL 1.5
#GOGOSTART
200000
#GOGOEND
#SCROLL 0.5
100100100000000000,
100000101010100000100000
#SCROLL 2
#GOGOSTART
200000
#GOGOEND
#SCROLL 0.5
100100100000100000,
000000101010100000100100
#SCROLL 2.5
#GOGOSTART
200000
#GOGOEND
#SCROLL 0.5
100100100000000000, //39
100000101010100000100100
#SCROLL 2
#GOGOSTART
200000
#GOGOEND
#SCROLL 0.5
100100100000100000,
000000101010100000100100
#SCROLL 1.5
#GOGOSTART
200000
#GOGOEND
#SCROLL 0.5
100100100000100000,
100000101010100000100100
#SCROLL 1
#GOGOSTART
200000
#GOGOEND
#SCROLL 0.5
100000100000000000,
1000
#SCROLL 1.5
#GOGOSTART
4
#GOGOEND
#SCROLL 0.5
000, //43
10100011
#SCROLL 2
#GOGOSTART
20
#GOGOEND
#SCROLL 0.5
100010,
10100011
#SCROLL 2.5
#GOGOSTART
20
#GOGOEND
#SCROLL 0.5
101000,
#SCROLL 2
300
#SCROLL 3
30
#SCROLL 4
30
#SCROLL 5
3,
#SCROLL 1
00007008, //47
#SCROLL 1.5
11021100,
#SCROLL 2
11021100,
#SCROLL 2.5
100100100100200200200200
#SCROLL 3
101010101010202020202020,
#SCROLL 1
34000000, //51
110000200000101000200000110000400000110000200000,
101000200000110000200000110000200000101000200000,
110000200000110000200000101000400000110000200000,
110000200000101000200000
#SCROLL 3.7
000000100200100100200000, //55
#SCROLL 1
101000200200110000200000110000400000101000200000,
110000200000110000200000101000200000110000200200,
110000100200101000200200110000100200110000200200,
#MEASURE 6/4
101000200200
#BPMCHANGE 312
#SCROLL 1.3
#GOGOSTART
100100100100100100100100200100100100200100200000
#GOGOEND
#BPMCHANGE 156
#SCROLL 1
101000200200, //59
#MEASURE 4/4
100200200200110000110000
#SCROLL 1.3
#GOGOSTART
101010101010202020202020,
#GOGOEND
#SCROLL 1
1020122212111222,
100100202020100100200200
#SCROLL 0.5
#GOGOSTART
101010101010202020202020,
#GOGOEND
#SCROLL 1
100200202020100200200200100200100100102020200200, //63
100200200200110000110000
#SCROLL 3.7
#GOGOSTART
101010101010202020202020,
#GOGOEND
#SCROLL 1
100000200200100200200200100200100200110000200200,
110000200110000200100000100220000200110000220000,
110000200200110100200200110000200200110000220000, //67
#BPMCHANGE 312
#GOGOSTART
1010101110111010,
2020202220222020,
1011101101101010,
2020102011102220, //71
1011011011011010,
2022022022022020,
1101111022022220,
1111111022222220, //75
#GOGOEND
#BPMCHANGE 156
110000200000110000200000101000200000110000200000,
#MEASURE 7/4
110000200000
#BPMCHANGE 312
#GOGOSTART
100100100100200200200200100000100000200200200200100100100100200000200000,
#MEASURE 6/4
100100200200100100200000
#GOGOEND
#BPMCHANGE 156
110000220000110000220000
#BPMCHANGE 312
#GOGOSTART
100200100200100200100200,
#GOGOEND
#BPMCHANGE 156
110100220200110100220200
#BPMCHANGE 312
#GOGOSTART
100100100100200200200200100100100100200200100100, //79
#GOGOEND
#MEASURE 4/4
#BPMCHANGE 156
0,
7,
#BARLINEOFF
000008,
0, //83
#END

COURSE:Hard
LEVEL:8
BALLOON:3,2,6,765
SCOREINIT:540,1930
SCOREDIFF:130
#START
#GOGOSTART
11111111,
11111111,
11111111,
11111110,
#GOGOEND
#BARLINEOFF
#BPMCHANGE 156
#SCROLL 0.5
4, //5
#BARLINEON
#SCROLL 1
1001101020000000,
1001101020000000,
1001101020000000,
1001101020001000, //9
1001101020000000,
1001101020000000,
1001101020102000,
50000008
#SCROLL 5
5008
#SCROLL 10
6008, //13
#SCROLL 1
1001101020102000,
1001101020101000,
1001101020102000,
10011010
#SCROLL 3
#GOGOSTART
00222220, //17
#GOGOEND
#SCROLL 1
1001101020102000,
1001101020101000,
1001101020102000,
#MEASURE 5/4
500000000000000000000800
#SCROLL 5
500000000800
#BPMCHANGE 312
680680680680680680680000, //21
#MEASURE 8/4
#SCROLL 1
2020202000222000,
1010101000111000,
2020202020222000,
1010202010112000, //25
1010101101101000,
2202020202020220,
1110101022202020,
1110111022202220, //29
#MEASURE 4/4
#BPMCHANGE 156
0010101000700008,
0020202000102070,
8120
#SCROLL 7
0120,
#SCROLL 1
10210120,
#MEASURE 8/4
#BPMCHANGE 312
#SCROLL 2
680006800068000680006800068000680006800068000680006800068000680006800068000680006800068000680000,
#BARLINEOFF
#MEASURE 4/4
#BPMCHANGE 156
#SCROLL 0.5
4, //35
#BARLINEON
1111
#SCROLL 1
#GOGOSTART
2
#GOGOEND
#SCROLL 0.5
011,
0110
#SCROLL 1.5
#GOGOSTART
2
#GOGOEND
#SCROLL 0.5
010,
1111
#SCROLL 2
#GOGOSTART
2
#GOGOEND
#SCROLL 0.5
001,
0110
#SCROLL 2.5
#GOGOSTART
2
#GOGOEND
#SCROLL 0.5
010, //39
1111
#SCROLL 2
#GOGOSTART
2
#GOGOEND
#SCROLL 0.5
001,
0110
#SCROLL 1.5
#GOGOSTART
2
#GOGOEND
#SCROLL 0.5
010,
1011
#SCROLL 1
#GOGOSTART
2
#GOGOEND
#SCROLL 0.5
010,
1000
#SCROLL 1.5
#GOGOSTART
4
#GOGOEND
#SCROLL 0.5
000, //43
1101
#SCROLL 2
#GOGOSTART
2
#GOGOEND
#SCROLL 0.5
000,
1101
#SCROLL 2.5
#GOGOSTART
2
#GOGOEND
#SCROLL 0.5
010,
#SCROLL 2
300
#SCROLL 3
30
#SCROLL 4
30
#SCROLL 5
3,
#SCROLL 1
00007008, //47
#SCROLL 1.5
11021100,
#SCROLL 2
11021100,
#SCROLL 2.5
10101010
#SCROLL 3
11111110,
#SCROLL 1
33000000, //51
1020112010201000,
1120102010201000,
1020102011201000,
10201120
#SCROLL 3
00222220, //55
#SCROLL 1
1120102010201120,
1020102011201020,
1022202022022020,
#MEASURE 6/4
10
#BPMCHANGE 312
#SCROLL 1.3
#GOGOSTART
11111110
#GOGOEND
#BPMCHANGE 156
#SCROLL 1
12, //59
#MEASURE 4/4
10111010
#SCROLL 1.3
#GOGOSTART
20202020,
#GOGOEND
#SCROLL 1
1020102010222020,
10111010
#SCROLL 0.5
#GOGOSTART
20202020,
#GOGOEND
#SCROLL 1
1020102010222020, //63
10111010
#SCROLL 3
#GOGOSTART
20202020,
#GOGOEND
#SCROLL 1
1020102010222020,
1011011022022020,
1011101020222020, //67
#BPMCHANGE 312
#GOGOSTART
1111,
2222,
11101010,
22202020, //71
11101110,
22202220,
11111010,
22222020, //75
#GOGOEND
#BPMCHANGE 156
1020102011201020,
#MEASURE 7/4
12
#BPMCHANGE 312
#GOGOSTART
111111102222,
#MEASURE 6/4
2220
#GOGOEND
#BPMCHANGE 156
1212
#BPMCHANGE 312
#GOGOSTART
2222,
#GOGOEND
#BPMCHANGE 156
1212
#BPMCHANGE 312
#GOGOSTART
11112222, //79
#GOGOEND
#MEASURE 4/4
#BPMCHANGE 156
0,
7,
#BARLINEOFF
000008,
0, //83
#END

COURSE:Normal
LEVEL:7
BALLOON:3,2,5,4,119
SCOREINIT:670,2980
SCOREDIFF:163
#START
#GOGOSTART
500000000000000000000000000000000000000008000000,
500000000000000000000000000000000000000008000000,
500000000000000000000000000000000000000008000000,
500000000000000000000000000000000000000008000000,
#GOGOEND
#BARLINEOFF
#BPMCHANGE 156
#SCROLL 0.5
4, //5
#BARLINEON
#SCROLL 1
10112000,
10112000,
10112000,
10112010, //9
10112000,
10112000,
10112020,
50000008
#SCROLL 5
5008
#SCROLL 10
6008, //13
#SCROLL 1
10112120,
10112110,
10112120,
1011
#SCROLL 3
#GOGOSTART
0222, //17
#GOGOEND
#SCROLL 1
10112120,
10112110,
10112120,
#MEASURE 5/4
500000000000000000080000
#SCROLL 5
500000080000
#BPMCHANGE 312
680680680680680000000000, //21
#MEASURE 8/4
#SCROLL 1
22220220,
11110110,
20222220,
11201120, //25
11110110,
22220220,
11112222,
500000000000000000000000000000000000000000000000000000000000000000000000000000000008000000000000, //29
#MEASURE 4/4
#BPMCHANGE 156
0010101000700008,
0020202000102070,
8220
#SCROLL 4
0220,
#SCROLL 1
10010120,
#MEASURE 8/4
#BPMCHANGE 312
#SCROLL 2
680006800068000680006800068000680006800068000680006800068000680006800068000680006800068000680000,
#BARLINEOFF
#MEASURE 4/4
#BPMCHANGE 156
#SCROLL 0.5
4, //35
#BARLINEON
1001
#SCROLL 1
#GOGOSTART
2
#GOGOEND
#SCROLL 0.5
001,
0110
#SCROLL 1.3
#GOGOSTART
2
#GOGOEND
#SCROLL 0.5
010,
1001
#SCROLL 1.6
#GOGOSTART
2
#GOGOEND
#SCROLL 0.5
001,
0110
#SCROLL 1.9
#GOGOSTART
2
#GOGOEND
#SCROLL 0.5
010, //39
1001
#SCROLL 1.6
#GOGOSTART
2
#GOGOEND
#SCROLL 0.5
001,
0110
#SCROLL 1.3
#GOGOSTART
2
#GOGOEND
#SCROLL 0.5
010,
1010
#SCROLL 1
#GOGOSTART
2
#GOGOEND
#SCROLL 0.5
010,
1000
#SCROLL 1.3
#GOGOSTART
4
#GOGOEND
#SCROLL 0.5
000, //43
1101
#SCROLL 1.6
#GOGOSTART
2
#GOGOEND
#SCROLL 0.5
000,
1101
#SCROLL 1.9
#GOGOSTART
2
#GOGOEND
#SCROLL 0.5
000,
#SCROLL 1
300
#SCROLL 1.5
30
#SCROLL 2
30
#SCROLL 2.5
3,
#SCROLL 1
00007008, //47
#SCROLL 1.2
11011100,
#SCROLL 1.4
11011100,
#SCROLL 1.6
1111
#SCROLL 1.8
1111,
#SCROLL 1
33000000, //51
10121210,
10121110,
10121210,
1012
#SCROLL 2.5
0222, //55
#SCROLL 1
10121210,
10121110,
10222022,
#MEASURE 6/4
10
#BPMCHANGE 312
#SCROLL 1.3
#GOGOSTART
10101010
#GOGOEND
#BPMCHANGE 156
#SCROLL 1
12, //59
#MEASURE 4/4
100000000000100000100000
#SCROLL 1.3
#GOGOSTART
500000000000000008000000,
#GOGOEND
#SCROLL 1
10121210,
100000000000100000100000
#SCROLL 0.5
#GOGOSTART
500000000000000008000000,
#GOGOEND
#SCROLL 1
10121210, //63
100000000000100000100000
#SCROLL 2.5
#GOGOSTART
500000000000000008000000,
#GOGOEND
#SCROLL 1
10121220,
11102220,
11112222, //67
#BPMCHANGE 312
#GOGOSTART
7008,
500000000000000000000000000000000008000000000000,
11,
22, //71
1110,
2220,
1111,
2222, //75
#GOGOEND
#BPMCHANGE 156
10121210,
#MEASURE 7/4
1
#BPMCHANGE 312
#GOGOSTART
112211,
#MEASURE 6/4
2020
#GOGOEND
#BPMCHANGE 156
1210
#BPMCHANGE 312
#GOGOSTART
2020,
#GOGOEND
#BPMCHANGE 156
1210
#BPMCHANGE 312
#GOGOSTART
10102022, //79
#GOGOEND
#MEASURE 4/4
#BPMCHANGE 156
0,
7,
#BARLINEOFF
000008,
0, //83
#END

COURSE:Easy
LEVEL:5
BALLOON:3,3,106
SCOREINIT:500,4280
SCOREDIFF:123
#START
#GOGOSTART
500000000000000000000000000000000000000008000000,
500000000000000000000000000000000000000008000000,
500000000000000000000000000000000000000008000000,
500000000000000000000000000000000008000000000000,
#GOGOEND
#BARLINEOFF
#BPMCHANGE 156
#SCROLL 0.5
4, //5
#BARLINEON
#SCROLL 1
10011000,
10012000,
10011000,
10012010, //9
10011000,
10012000,
10011010,
50000008
#SCROLL 5
5008
#SCROLL 10
6008, //13
#SCROLL 1
10111000,
10112000,
10111000,
1011
#SCROLL 3
#GOGOSTART
0220, //17
#GOGOEND
#SCROLL 1
10111000,
10112000,
10111010,
#MEASURE 5/4
500000000000000000080000
#SCROLL 5
500000080000
#BPMCHANGE 312
680680680680680000000000, //21
#MEASURE 8/4
#SCROLL 1
22,
11,
2220,
1210, //25
1111,
2222,
1122,
500000000000000000000000000000000000000000000000000000000000000000000000000000000000000000000008, //29
#MEASURE 4/4
#BPMCHANGE 156
0000300000700008,
0403,
0110
#SCROLL 4
0110,
#SCROLL 1
10010010,
#MEASURE 8/4
#BPMCHANGE 312
#SCROLL 2
680006800068000680006800068000680006800068000680006800068000680006800068000680006800068000000000,
#BARLINEOFF
#MEASURE 4/4
#BPMCHANGE 156
#SCROLL 0.5
4, //35
#BARLINEON
1000
#SCROLL 1
#GOGOSTART
2
#GOGOEND
#SCROLL 0.5
001,
0110
#SCROLL 1.3
#GOGOSTART
2
#GOGOEND
#SCROLL 0.5
000,
1000
#SCROLL 1.6
#GOGOSTART
2
#GOGOEND
#SCROLL 0.5
001,
0110
#SCROLL 1.9
#GOGOSTART
2
#GOGOEND
#SCROLL 0.5
000, //39
1000
#SCROLL 1.6
#GOGOSTART
2
#GOGOEND
#SCROLL 0.5
001,
0110
#SCROLL 1.3
#GOGOSTART
2
#GOGOEND
#SCROLL 0.5
000,
1000
#SCROLL 1
#GOGOSTART
2
#GOGOEND
#SCROLL 0.5
000,
1000
#SCROLL 1.3
#GOGOSTART
4
#GOGOEND
#SCROLL 0.5
000, //43
1100
#SCROLL 1.6
#GOGOSTART
2
#GOGOEND
#SCROLL 0.5
000,
1100
#SCROLL 1.9
#GOGOSTART
2
#GOGOEND
#SCROLL 0.5
000,
#SCROLL 1
300
#SCROLL 1.5
30
#SCROLL 2
30
#SCROLL 2.5
3,
#SCROLL 1
000000000000000000000000500000000008000000000000, //47
#SCROLL 1.2
11001100,
#SCROLL 1.4
11001100,
#SCROLL 1.6
1110
#SCROLL 1.8
1110,
#SCROLL 1
33000000, //51
10101210,
10101110,
10101210,
1010
#SCROLL 2.5
0220, //55
#SCROLL 1
10101210,
10101110,
1222,
#MEASURE 6/4
1
#BPMCHANGE 312
#SCROLL 1.3
#GOGOSTART
1110
#GOGOEND
#BPMCHANGE 156
#SCROLL 1
2, //59
#MEASURE 4/4
100000000000100000000000
#SCROLL 1.3
#GOGOSTART
500000000000000008000000,
#GOGOEND
#SCROLL 1
10101110,
100000000000100000000000
#SCROLL 0.5
#GOGOSTART
500000000000000008000000,
#GOGOEND
#SCROLL 1
10101110, //63
100000000000100000000000
#SCROLL 2.5
#GOGOSTART
500000000000000008000000,
#GOGOEND
#SCROLL 1
1112,
1122,
11102220, //67
#BPMCHANGE 312
#GOGOSTART
7008,
500000000000000000000000000000000008000000000000,
11,
1, //71
22,
2,
11,
22, //75
#GOGOEND
#BPMCHANGE 156
10101110,
#MEASURE 7/4
1
#BPMCHANGE 312
#GOGOSTART
102010,
#MEASURE 6/4
20
#GOGOEND
#BPMCHANGE 156
11
#BPMCHANGE 312
#GOGOSTART
20,
#GOGOEND
#BPMCHANGE 156
11
#BPMCHANGE 312
#GOGOSTART
1122, //79
#GOGOEND
#MEASURE 4/4
#BPMCHANGE 156
0,
7,
#BARLINEOFF
000008,
0, //83
#END
