//TJADB Project
TITLE:High-tension☆Anki SHOW!
TITLEJA:ハイテンション☆暗記SHOW!
SUBTITLE:--Hige Driver feat. Fox(ChumuNote), Okame(Terashima Junta),
Hyottoko(Sumiya Tetsuei) / WADIVE RECORD
SUBTITLEJA:ヒゲドライバー feat. きつね(ChumuNote),おかめ(寺島惇太),ひょっとこ(住谷哲栄) / WADIVE RECORD
BPM:188
WAVE:High-tension Anki SHOW.ogg
OFFSET:-0.871
DEMOSTART:55.097 //shinuchi:
4050/2290/1610/1100

COURSE:Oni
LEVEL:9
BALLOON:7
SCOREINIT:380,1200
SCOREDIFF:90
#START
2000200020112030,
0022102210100030,
0022101120200030,
0022102210112010,
3020302030112040,
0011101110111010,
4011201040112030, //7
0011201120102010,
2012012040104010,
2011201120102020,
4011201040112010,
0011201120102010,
2012012040104010,
1011101110111011,
2011201120202020, //51
11201121,
1122212000222020,
1010200010202212,
2211211000222020,
1022101020100021,
1122112000222020,
1011202010001040,
04030222, //23
1010202010112220,
1221211000222020,
1011202010002020,
1121221122212000,
1022102010102020,
1221121000102020,
30430306,
000000000000000000000008000000000000000000000000,
22112211,
2011201120104000, //33
1012101011221022,
1110202212012011,
1012011120122210,
1022111111102022,
1201221021021120,
1122112212112020,
30230230,
12112120,
70000800,
10221022111010
#GOGOSTART
40, //43
0011201120102011,
2210201022102210,
300000000000300000600000000000000008000000000000,
41414403,
0022102210100030,
0022101120200030,
0022102211102011,
1111201020011040, //51
0011201120102011,
2210201022112210,
300000000000300000600000000000000008000000000000,
41414403,
0022102211102030,
0022101120222030,
0022102211102030,
0022101122201030,
2011201120112011,
2011201120112011,
2211221122112210,
4040303040002011, //63
#GOGOEND
11211121,
1010201020222010,
11211121,
2011201020112010,
11211121,
1010201020222010,
11211121,
2011201020112010,
20000001, //72
0202,
0202,
0202,
10101100,
1111,
1111,
11111115,
000000000000000000000008000000000000000000
#GOGOSTART
400000, //80
0011201120102011,
2210201022102210,
300000000000300000600000000008000000200000100000,
41414403,
0022102211102030,
0022101120222030,
0022102211102030,
0022101122201030, //88
2011201120112011,
2011201120112011,
2211221122112210,
4011201040112030,
#GOGOEND
01211121,
1010201020112010,
11211121,
4011201040112210,
3,
0, //98
#END

COURSE:Hard
LEVEL:7
BALLOON:9
SCOREINIT:420,1820
SCOREDIFF:108
#START
20202223,
02201103,
02221103,
02201110,
30303024,
0111,
21202023, //7
01202120,
2002002040004010,
01202120,
21202121,
01202120,
2002002040004010,
01111111,
20202222, //15
10201120,
1001001000202000,
11201121,
10210220,
11111102,
12020220,
11201014,
04030222, //23
10201120,
1001001000202000,
11221020,
30303330,
11011120,
1001001000202000,
30330306,
000000000000000000000008000000000000000000000000,
2121,
21212040, //33
1010101011101000,
1110101010002000,
1010101010111000,
1010111010102000,
1101101022022020,
1110101010102020,
30230230,
11112120,
9009,
8000000
#GOGOSTART
4, //43
01212121,
11112121,
300000000000300000600000000000000008000000000000,
40404403,
0011101010200030,
0011101010200030,
0011101020102010,
00202014, //51
01212121,
11112121,
300000000000300000600000000000000008000000000000,
40404403,
0011101020001030,
0011101010200030,
0011101020200030,
0011101020102030,
00212121,
21212121,
1110111011102000,
21212011, //63
#GOGOEND
11201120,
11202120,
11201120,
21212011,
11201120,
11202120,
11201120,
21212011,
20000001, //72
0202,
0202,
0202,
10101100,
1111,
1111,
11101115,
000000000000000000000008000000000000000000
#GOGOSTART
400000, //80
01212121,
11112121,
300000000000300000600000000000000008000000000000,
40404403,
0011101020001030,
0011101010200030,
0011101020001030,
0011101020102030, //88
00212121,
21212121,
1110111011102000,
21202023,
#GOGOEND
01201120,
11204040,
11201120,
2010200020111010,
3,
0, //98
#END

COURSE:Normal
LEVEL:5
BALLOON:7
SCOREINIT:420,2700
SCOREDIFF:115
#START
20202003,
00202003,
00202003,
0222,
30303004,
0111,
11101013, //7
0111,
10002022,
0111,
20202022,
0111,
10002022,
0111,
20202220, //15
1110,
10010000,
1110,
10010000,
10101102,
02020220,
10101011,
01030000, //23
1212,
10010220,
1110,
3333,
1212,
10010220,
30330306,
000000000000000000000008000000000000000000000000,
22,
2224, //33
10101110,
11101020,
10111010,
11101020,
10111010,
11101020,
30130130,
11102020,
9009,
8000000
#GOGOSTART
4, //43
01101010,
11102220,
600000000000000000000000000008000000000000000000,
40404403,
01101103,
01102203,
01101122,
00202004, //51
01101010,
11102220,
600000000000000000000000000008000000000000000000,
40404403,
01101013,
01111103,
01101103,
01101113,
0222,
2222,
11111020,
11103000, //63
#GOGOEND
1212,
1222,
1212,
3333,
1212,
1222,
1212,
3333,
20000001, //72
0202,
0202,
0202,
1110,
11,
11,
10101005,
000000000000000000000008000000000000000000
#GOGOSTART
400000, //80
01101010,
11102220,
600000000000000000000000000008000000000000000000,
40404403,
01101013,
01111103,
01101013,
01101113, //88
0222,
2222,
11111020,
11101013,
#GOGOEND
0212,
1244,
1212,
11101110,
3,
0, //98
#END

COURSE:Easy
LEVEL:4
BALLOON:5
SCOREINIT:460,5180
SCOREDIFF:143
#START
00000003,
00000003,
00000003,
0,
30303004,
0,
10101003, //7
01,
1022,
01,
1011,
01,
1022,
01,
1110, //15
11,
1,
11,
1,
10000002,
00020000,
10000001,
00030000, //23
11,
10010000,
1110,
3330,
11,
10010000,
30030306,
000000000000000000000008000000000000000000000000,
22,
24, //33
1111,
11,
1110,
1110,
1111,
11,
30030030,
02,
9009,
8000000
#GOGOSTART
4, //43
0110,
1111,
6,
000000000000000008000000000000000000000000300000,
00101003,
00101003,
00101001,
00000004, //51
0110,
1111,
6,
000000000000000008000000000000000000000000300000,
00101003,
00101003,
00101003,
00101006,
000000000000000000000000000008000000000000000000,
22,
1110,
33, //63
#GOGOEND
11,
12,
11,
3330,
11,
12,
11,
3330,
20000001, //72
0,
0,
0,
1110,
1,
1,
10001005,
000000000000000000000008000000000000000000
#GOGOSTART
400000, //80
0110,
1111,
6,
000000000000000000000008000000000000000000300000,
00101003,
00101003,
00101003,
00101006, //88
000000000000000000000000000008000000000000000000,
22,
1110,
30303003,
#GOGOEND
0202,
0244,
0202,
1111,
3,
0, //98
#END
