//TJADB Project
TITLE:Dark Ex Machina♡
TITLEJA:ダーク・エクス・マキナ♡
SUBTITLE:--Machina the DARK prod. Licht Tsuboi (BNSI)
SUBTITLEJA:マキナ the DARK prod. 坪井リヒト(BNSI)
BPM:176.5
WAVE:Dark Ex Machina.ogg
OFFSET:-1.982
DEMOSTART:63.603

COURSE:Oni
LEVEL:10
BALLOON:5,13,5,13,5,13,2,2,83
SCOREINIT:740
SCOREDIFF:0
#START
2,
0,
2,
0,
#BPMCHANGE 200
2
#BPMCHANGE 210
2,
#BPMCHANGE 240
22,
#BPMCHANGE 265
2222,
#BPMCHANGE 275
0, //8
#BPMCHANGE 290
#GOGOSTART
1110222010102020,
1110222010102020,
1110222010102020,
100000200200100000500008000000200000200000200000,
1110222010102020,
1110222010102020,
1110222010102020,
100000200200100000500008000000200000200000200000, //16
#GOGOEND
10000001,
0,
10010010,
01001010,
1110111010101010,
1110111010101010,
1110111010101010,
100000200200100000500008000000200000200000200000, //24
10002001,
02,
10012010,
01002010,
1110222010201020,
1110222010201020,
1110222010201020,
100000200200100000500008000000200000200000200000, //32
#MEASURE 2/4
#BPMCHANGE 200
100000100000100000100000,
#BARLINEOFF
#MEASURE 1/4
#SCROLL 3
000500800000,
#MEASURE 1/8
#SCROLL 0.53
20000000,
#SCROLL 0.84
00200000,
#SCROLL 1.02
00020000,
#SCROLL 1.42
00000200,
#MEASURE 1/4
#SCROLL 3
000500800000, //39
#BARLINEON
#MEASURE 2/4
#SCROLL 1
100000100000100000100000,
#BARLINEOFF
#MEASURE 1/4
#SCROLL 3
000500800000,
#MEASURE 1/8
#SCROLL 0.53
20000000,
#SCROLL 0.84
00200000,
#SCROLL 1.02
00020000,
#SCROLL 1.42
00000200,
#MEASURE 1/4
#SCROLL 3
000500800000, //46
#BARLINEON
#MEASURE 2/4
#SCROLL 0.7
100100000000000000200200,
#BARLINEOFF
#MEASURE 1/4
#SCROLL 3
000500800000,
#MEASURE 2/4
#SCROLL 0.7
100100000000000000200200,
#MEASURE 1/4
#SCROLL 3
000500800000, //50
#BARLINEON
#MEASURE 2/4
#SCROLL 0.7
100100000000000000200200,
#BARLINEOFF
#MEASURE 1/4
#SCROLL 3
000500800000,
#MEASURE 2/4
#BPMCHANGE 99
#SCROLL 1.41
200000002000000020000000, //53
#BARLINEON
#MEASURE 1/4
#BPMCHANGE 299
#SCROLL 0.8
1000,
#BARLINEOFF
#MEASURE 1/8
#SCROLL 3
58,
#MEASURE 1/4
#SCROLL 0.8
2000,
#MEASURE 1/8
#SCROLL 3.25
58,
#MEASURE 1/4
#SCROLL 0.8
2000, //58
#MEASURE 1/8
#SCROLL 3.5
58,
#MEASURE 1/4
#SCROLL 0.8
2000,
#MEASURE 1/8
#SCROLL 3.75
58,
#MEASURE 1/4
#SCROLL 0.8
2000,
#MEASURE 1/8
#SCROLL 4
58, //63
#MEASURE 1/4
#SCROLL 0.8
2000,
#MEASURE 1/8
#SCROLL 4.25
58,
#MEASURE 1/4
#SCROLL 0.8
2000,
#MEASURE 1/8
#SCROLL 4.5
58,
#MEASURE 1/4
#SCROLL 0.8
2000,
#MEASURE 1/8
#SCROLL 4.75
58, //69
#MEASURE 1/4
#SCROLL 0.8
2000,
#MEASURE 1/8
#SCROLL 5
58,
#MEASURE 3/16
#SCROLL 0.8
101,
#MEASURE 1/16
#SCROLL 0.9
1,
#SCROLL 1
1,
#SCROLL 1.1
1,
#SCROLL 1.2
1,
#SCROLL 1.3
1,
#SCROLL 1.4
1,
#SCROLL 1.5
1, //79
#BARLINEON
#MEASURE 4/4
#SCROLL 1
20020030,
02002003,
00400400,
#BPMCHANGE 355
0,
#SCROLL 1.32
1111111111111111,
1111111111111111,
#MEASURE 2/4
11111111,
#BARLINEOFF
#MEASURE 4/4
#BPMCHANGE 299
#SCROLL 1.57
2, //87
#BARLINEON
#SCROLL 1
#GOGOSTART
30230230,
2011101020101110,
20102212,
1020111010102222,
10201120,
1011101020101110,
2020111020111020,
1110201110202000, //95
10210210,
2011101020101110,
20102212,
1020111010102222,
1122112211221122,
1122112211221210,
#GOGOEND
0,
#SCROLL 3
43, //103
#MEASURE 3/4
#SCROLL 1
#GOGOSTART
400400,
#BARLINEOFF
#MEASURE 1/4
#SCROLL 1.2
30,
#BARLINEON
#MEASURE 2/4
0300,
#BARLINEOFF
#SCROLL 1.3
4004, //107
#BARLINEON
#MEASURE 1/4
00,
#BARLINEOFF
#MEASURE 3/4
#SCROLL 1.4
300300, //109
#BARLINEON
#MEASURE 9/16
#SCROLL 1.5
202020202,
#BARLINEOFF
#MEASURE 1/16
#SCROLL 1.7
2,
#SCROLL 1.9
2,
#SCROLL 2.1
2,
#SCROLL 2.3
2,
#SCROLL 2.5
2,
#SCROLL 2.7
2,
0, //117
#GOGOEND
#BARLINEON
#MEASURE 4/4
#BPMCHANGE 176.5
#SCROLL 1
3022202220220220,
#BPMCHANGE 200
3022202220220220,
#BPMCHANGE 230
3022202220220220,
#BPMCHANGE 240
3022203000203020,
#BPMCHANGE 270
3022202220220220,
3022202220220220,
#BPMCHANGE 290
3022202220220220,
3022203000203020, //125
#BPMCHANGE 300
3003003003003003,
#MEASURE 7/8
00300300300300,
#MEASURE 2/4
#SCROLL 9
600000080000, //128
#BRANCHSTART p,85,85
#N
#MEASURE 4/4
#SCROLL 1
#GOGOSTART
11221122,
11221222,
11221122,
1212121010202020,
11221122,
11221222,
12212112,
1000221000221000, //n136
#GOGOEND
1010201011102010,
0010201011102010,
0010102011102020,
100000100000100100100000200020002000100000000000,
#SCROLL 1
1010201011102010,
0010201011102010,
0010102011102020,
1010111022221000, //n144
#GOGOSTART
11111111,
2210102210102210,
11111111,
2110102110102110,
11111111,
1110101110101110,
1010101010111110,
#MEASURE 2/4
#BPMCHANGE 243
#SCROLL 1.23
70000008,
#GOGOEND
#BARLINEOFF
#SCROLL 1
11112000, //n153
#BARLINEON
#MEASURE 4/4
#GOGOSTART
1010201011102010,
2012102011111020,
2010221020102210,
#MEASURE 1/4
2011,
#BARLINEOFF
#MEASURE 3/4
#SCROLL 13
700000000080,
#BARLINEON
#MEASURE 4/4
#BPMCHANGE 300
#SCROLL 1
00311112,
1010101011101020,
11111112,
#MEASURE 3/4
100100100000100000000000200000000000,
#GOGOEND
#BARLINEOFF
#MEASURE 1/4
#SCROLL 6
600008000000, //n163
#BARLINEON
#MEASURE 3/4
#SCROLL 1
#GOGOSTART
102011,
201121,
101120101010,
434,
300011221010,
234,
300011221010,
234, //n171
#MEASURE 4/4
#BPMCHANGE 180
#SCROLL 1.67
101000202000100200100200100000200000100020001000,
101000202000100200100200100000200000100020001000,
#GOGOEND
#BPMCHANGE 299
#SCROLL 3
4, //n174
#E
#MEASURE 4/4
#SCROLL 1
#GOGOSTART
11221122,
11221222,
11221122,
1212121010202020,
11221122,
11221222,
12212112,
1000221000221000, //e136
#GOGOEND
1010201011102010,
0010201011102010,
0010102011102020,
100000100000100100100000200020002000100000000000,
#SCROLL 1
1010201011102010,
0010201011102010,
0010102011102020,
1010111022221000, //e144
#GOGOSTART
11111111,
2210102210102210,
11111111,
2110102110102110,
11111111,
1110101110101110,
1010101010111110,
#MEASURE 2/4
#BPMCHANGE 243
#SCROLL 1.23
70000008,
#GOGOEND
#BARLINEOFF
#SCROLL 1
11112000, //e153
#BARLINEON
#MEASURE 4/4
#GOGOSTART
1010201011102010,
2012102011111020,
2010221020102210,
#MEASURE 1/4
2011,
#BARLINEOFF
#MEASURE 3/4
#SCROLL 13
700000000080,
#BARLINEON
#MEASURE 4/4
#BPMCHANGE 300
#SCROLL 1
00311112,
1010101011101020,
11111112,
#MEASURE 3/4
100100100000100000000000200000000000,
#GOGOEND
#BARLINEOFF
#MEASURE 1/4
#SCROLL 6
600008000000, //e163
#BARLINEON
#MEASURE 3/4
#SCROLL 1
#GOGOSTART
102011,
201121,
101120101010,
434,
300011221010,
234,
300011221010,
234, //e171
#MEASURE 4/4
#BPMCHANGE 180
#SCROLL 1.67
101000202000100200100200100000200000100020001000,
101000202000100200100200100000200000100020001000,
#GOGOEND
#BPMCHANGE 299
#SCROLL 3
4, //e174
#M
#MEASURE 4/4
#SCROLL 1
#GOGOSTART
11221122,
11221222,
11221122,
1212121210202020,
11221122,
11221222,
12212112,
1002221002221000, //m136
#GOGOEND
1010201021102011,
0110201021102011,
0110102021102020,
100000100000100200100000200020001000200020002000,
#SCROLL 0.75
1022201020201110,
21221222,
1022102011221010,
2020102012121210, //m144
#SCROLL 1
#GOGOSTART
11111111,
1222101222101222,
11111111,
1122101122101122,
11111111,
1112101112101112,
1010201010221122,
#MEASURE 2/4
#BPMCHANGE 243
#SCROLL 1.23
70000008,
#GOGOEND
#BARLINEOFF
#SCROLL 1
11112222, //m153
#BARLINEON
#MEASURE 4/4
#GOGOSTART
1011202011102010,
2012112212211020,
2010122022112111,
#MEASURE 1/4
200111,
#BARLINEOFF
#MEASURE 3/4
#SCROLL 13
700000000000000800,
#BARLINEON
#MEASURE 4/4
#BPMCHANGE 300
#SCROLL 1
0000301210121012,
1012101211111012,
1012101210121012,
#MEASURE 3/4
100100100000500000008000200000000000,
#GOGOEND
#BARLINEOFF
#MEASURE 1/4
#SCROLL 6
600008000000, //m163
#BARLINEON
#MEASURE 3/4
#SCROLL 1
#GOGOSTART
100020001111,
201121,
101120202210,
211012102210,
708012221222,
134,
708011221122,
134, //m171
#MEASURE 4/4
#BPMCHANGE 180
#SCROLL 1.67
102020102020100200100200100200100200100010001000,
102020102020100200100200100200100200100010001000,
#GOGOEND
#BPMCHANGE 299
#SCROLL 3
4, //m174
#BRANCHSTART p,101,102
#N
#BARLINEOFF
#SCROLL 1
0,
#BARLINEON
0, //n176
#E
#BARLINEOFF
#SCROLL 1
0,
#BARLINEON
0, //e176
#M
#BARLINEOFF
#SCROLL 1
0,
#BARLINEON
0, //m176
#BRANCHEND
500008000000200000200000000000500008000000500008,
000000200000500008000000200000000000200000200000,
500008000000500008000000000000200000200000500008,
000000200000500008000000000000200000200000200000,
000000000000200000500008000000000000500008000000,
200000500008000000200000000000000000200000000000,
000000200000500008000000000000500008000000200000,
500008000000000000200000500008000000500008000000, //184
500008000000100000000000200000200000200000100000,
02010222,
10102221,
02010222,
12121212,
#MEASURE 3/4
121212,
#BARLINEOFF
#MEASURE 1/8
#BPMCHANGE 149.5
#SCROLL 2
5,
#BARLINEON
#MEASURE 4/4
#BPMCHANGE 160
#SCROLL 1.87
000000000000000000000000000000000000000008000000,
#SCROLL 5.61
3, //193
#BPMCHANGE 320
#SCROLL 1
#GOGOSTART
30230230,
2011101020101110,
20102212,
1020111010102222,
10201120,
1011101020111010,
2020111020111020,
1110201110202000, //201
11211211,
2011101020101110,
21212212,
1020111010102222,
1122112211221122,
1122112211221210,
#GOGOEND
#BARLINEOFF
#BPMCHANGE 160
#SCROLL 2
0, //208
#BARLINEON
#MEASURE 1/8
#BPMCHANGE 250
#SCROLL 3
20,
#BARLINEOFF
#MEASURE 7/8
#SCROLL 1.2
10101010101111,
#BARLINEON
#MEASURE 3/16
#BPMCHANGE 175
#SCROLL 1.71
101,
#BARLINEOFF
#MEASURE 1/16
#SCROLL 0.86
4,
#MEASURE 3/4
#SCROLL 1.71
101010101111, //213
#BARLINEON
#MEASURE 1/16
#BPMCHANGE 250
#SCROLL 1.2
1,
#BARLINEOFF
#SCROLL 0.6
4,
#MEASURE 7/8
#SCROLL 1.2
10101010101111,
#BARLINEON
#MEASURE 3/8
#BPMCHANGE 300
#SCROLL 1
101010,
#BARLINEOFF
#MEASURE 1/8
#SCROLL 0.5
40,
#MEASURE 2/4
#SCROLL 1
10101111, //219
#BARLINEON
#MEASURE 13/16
#BPMCHANGE 275
#SCROLL 1.09
1010101010101,
#BARLINEOFF
#MEASURE 1/16
#SCROLL 2.73
2,
#MEASURE 1/8
#SCROLL 1.09
11,
#BARLINEON
#MEASURE 15/16
#BPMCHANGE 225
#SCROLL 1.33
100000100000100000100000100000100000100100100,
#BARLINEOFF
#MEASURE 1/16
#SCROLL 0.67
040, //224
#BARLINEON
#MEASURE 4/4
#BPMCHANGE 250
#SCROLL 1.2
1011101011101011,
#MEASURE 1/4
#BPMCHANGE 300
#SCROLL 1
1010,
#BARLINEOFF
#MEASURE 1/8
#SCROLL 0.5
40,
#MEASURE 5/8
#SCROLL 1
1010101110, //228
#BARLINEON
#MEASURE 3/4
111022102210,
#BARLINEOFF
#MEASURE 1/8
#SCROLL 0.5
40,
#SCROLL 1
20,
#BARLINEON
#MEASURE 4/4
1110221022102020, //232
#MEASURE 1/4
1110,
#BARLINEOFF
#MEASURE 1/16
#SCROLL 2.5
2,
#MEASURE 11/16
#SCROLL 1
21022102020,
#BARLINEON
#MEASURE 4/4
#BPMCHANGE 325
#SCROLL 0.92
1212102011102011, //236
#BPMCHANGE 305
#SCROLL 0.98
12212212,
21221221,
2020102020121212,
1212121212121212,
111111, //241
#GOGOEND
7,
0,
0,
0008, //245
#BPMCHANGE 432
#SCROLL 1.09
#GOGOSTART
111111111111,
111111111111,
111111111111,
1111111111111111,
#GOGOEND
22000000,
#BARLINEOFF
0, //251
#END

COURSE:Hard
LEVEL:8
BALLOON:3,3,3,6,5,83
SCOREINIT:1100
SCOREDIFF:0
#START
2,
0,
2,
0,
#BPMCHANGE 200
2
#BPMCHANGE 210
2,
#BPMCHANGE 240
22,
#BPMCHANGE 265
2222,
#BPMCHANGE 275
0, //8
#BPMCHANGE 290
#GOGOSTART
1110100010001000,
1110100010001000,
1110100010001000,
200000200000200000500008000000200000200000200000,
1110100010001000,
1110100010001000,
1110100010001000,
200000200000200000500008000000200000200000200000, //16
#GOGOEND
10000001,
0,
10010010,
01001010,
1110100010001000,
1110100010001000,
1110100010001000,
200000200000200000500008000000200000200000200000, //24
10002001,
02,
10012010,
01002010,
1110200010002000,
1110200010002000,
1110200010002000,
200000200000200000500008000000200000200000200000,//32
#MEASURE 2/4
#BPMCHANGE 200
1111,
#BARLINEOFF
#MEASURE 1/4
#SCROLL 3
0580,
#MEASURE 1/8
#SCROLL 0.53
2,
#SCROLL 0.84
0,
#SCROLL 1.02
0,
#SCROLL 1.42
0,
#MEASURE 1/4
#SCROLL 3
0580, //39
#BARLINEON
#MEASURE 2/4
#SCROLL 1
1111,
#BARLINEOFF
#MEASURE 1/4
#SCROLL 3
0580,
#MEASURE 1/8
#SCROLL 0.53
2,
#SCROLL 0.84
0,
#SCROLL 1.02
0,
#SCROLL 1.42
0,
#MEASURE 1/4
#SCROLL 3
0580, //46
#BARLINEON
#MEASURE 2/4
#SCROLL 0.7
11000022,
#BARLINEOFF
#MEASURE 1/4
#SCROLL 3
0580,
#MEASURE 2/4
#SCROLL 0.7
11000022,
#MEASURE 1/4
#SCROLL 3
0580, //50
#BARLINEON
#MEASURE 2/4
#SCROLL 0.7
11000022,
#BARLINEOFF
#MEASURE 1/4
#SCROLL 3
0580,
#MEASURE 2/4
#BPMCHANGE 99
#SCROLL 1.41
222, //53
#BARLINEON
#MEASURE 1/4
#BPMCHANGE 299
#SCROLL 0.8
1,
#BARLINEOFF
#MEASURE 1/8
#SCROLL 3
58,
#MEASURE 1/4
#SCROLL 0.8
2,
#MEASURE 1/8
#SCROLL 3.25
58,
#MEASURE 1/4
#SCROLL 0.8
2, //58
#MEASURE 1/8
#SCROLL 3.5
58,
#MEASURE 1/4
#SCROLL 0.8
2,
#MEASURE 1/8
#SCROLL 3.75
58,
#MEASURE 1/4
#SCROLL 0.8
2,
#MEASURE 1/8
#SCROLL 4
58, //63
#MEASURE 1/4
#SCROLL 0.8
2,
#MEASURE 1/8
#SCROLL 4.25
58,
#MEASURE 1/4
#SCROLL 0.8
2,
#MEASURE 1/8
#SCROLL 4.5
58,
#MEASURE 1/4
#SCROLL 0.8
2,
#MEASURE 1/8
#SCROLL 4.75
58, //69
#MEASURE 1/4
#SCROLL 0.8
2,
#MEASURE 1/8
#SCROLL 5
58,
#MEASURE 3/16
#SCROLL 0.8
107,
#MEASURE 1/16
#SCROLL 0.9
0,
#SCROLL 1
0,
#SCROLL 1.1
0,
#SCROLL 1.2
0,
#SCROLL 1.3
0,
#SCROLL 1.4
8,
#SCROLL 1.5
0, //79
#BARLINEON
#MEASURE 4/4
#SCROLL 1
20020030,
02002003,
00400400,
#BPMCHANGE 355
0,
#SCROLL 1.32
5,
0,
#MEASURE 2/4
000000000000000000000008,
#BARLINEOFF
#MEASURE 4/4
#BPMCHANGE 299
#SCROLL 1.57
0, //87
#BARLINEON
#SCROLL 1
#GOGOSTART
30230230,
11212120,
20102210,
12121120,
10201120,
11212120,
2020101020111000,
1110001110002000, //95
10210210,
11212120,
20102210,
12121120,
12121212,
1020102010201210,
#GOGOEND
0,
#SCROLL 3
43, //103
#MEASURE 3/4
#SCROLL 1
#GOGOSTART
400400,
#BARLINEOFF
#MEASURE 1/4
#SCROLL 1.2
30,
#BARLINEON
#MEASURE 2/4
0300,
#BARLINEOFF
#SCROLL 1.3
4004, //107
#BARLINEON
#MEASURE 1/4
00,
#BARLINEOFF
#MEASURE 3/4
#SCROLL 1.4
300300, //109
#BARLINEON
#MEASURE 9/16
#SCROLL 1.5
202020207,
#BARLINEOFF
#MEASURE 1/16
#SCROLL 1.7
0,
#SCROLL 1.9
0,
#SCROLL 2.1
0,
#SCROLL 2.3
0,
#SCROLL 2.5
0,
#SCROLL 2.7
8,
0, //117
#GOGOEND
#BARLINEON
#MEASURE 4/4
#BPMCHANGE 176.5
#SCROLL 1
3002202200220220,
#BPMCHANGE 200
3002202200220220,
#BPMCHANGE 230
3002202200220220,
#BPMCHANGE 240
3002203000203020,
#BPMCHANGE 270
3002202200220220,
3002202200220220,
#BPMCHANGE 290
3002202200220220,
3002203000203020, //125
#BPMCHANGE 300
3003003003003003,
#MEASURE 7/8
00300300300300,
#MEASURE 2/4
#SCROLL 9
600000080000, //128
#MEASURE 4/4
#SCROLL 1
#GOGOSTART
11221020,
11221120,
11211020,
12120210,
11221020,
11201120,
11211020,
3000111000111000, //136
#GOGOEND
11211021,
01211021,
01121022,
100100100000202020200000,
11212021,
01212021,
01121022,
1010100022202020, //144
#SCROLL 1
#GOGOSTART
11111111,
1110101110101000,
11111111,
1110101110101000,
11111111,
1110101110101000,
1010101010111010,
#MEASURE 2/4
#BPMCHANGE 243
#SCROLL 1.23
70000008,
#GOGOEND
#BARLINEOFF
#SCROLL 1
0, //153
#BARLINEON
#MEASURE 4/4
#GOGOSTART
11210121,
2002002002001010,
21212111,
#MEASURE 1/4
2,
#BARLINEOFF
#MEASURE 3/4
#SCROLL 2.43
700000000000000800,
#BARLINEON
#MEASURE 4/4
#BPMCHANGE 300
#SCROLL 1
00111110,
11111110,
11111110,
#MEASURE 3/4
111020,
#GOGOEND
#BARLINEOFF
#MEASURE 1/4
#SCROLL 6
600008000000, //163
#BARLINEON
#MEASURE 3/4
#SCROLL 1
#GOGOSTART
100011,
200021,
100202,
700008,
301122,
233,
301122,
233, //171
#MEASURE 4/4
#BPMCHANGE 180
#SCROLL 1.67
101000202000100100100000200000200000100010001000,
101000202000100100100000200000200000100010001000,
#GOGOEND
#BPMCHANGE 299
#SCROLL 3
4, //174
#BARLINEOFF
#SCROLL 1
0,
#BARLINEON
0, //176
500008000000200000200000000000500008000000500008,
000000200000500008000000200000000000200000200000,
500008000000500008000000000000200000200000500008,
000000200000500008000000000000200000200000200000,
000000000000200000500008000000000000500008000000,
200000500008000000200000000000000000200000000000,
000000200000500008000000000000500008000000200000,
500008000000000000200000500008000000500008000000, //184
500008000000100000000000200000000000200000100000,
02010222,
10102021,
02010222,
12121212,
#MEASURE 3/4
121212,
#BARLINEOFF
#MEASURE 1/8
#BPMCHANGE 149.5
#SCROLL 2
5,
#BARLINEON
#MEASURE 4/4
#BPMCHANGE 160
#SCROLL 1.87
000000000000000000000000000000000000000008000000,
#SCROLL 5.61
3, //193
#BPMCHANGE 320
#SCROLL 1
#GOGOSTART
30230230,
11212120,
20102210,
12121120,
10201120,
11212120,
2020101020111000,
1110001110002000, //201
11211211,
11212120,
20102212,
12121120,
12121212,
1020102010201210,
#GOGOEND
#BARLINEOFF
#BPMCHANGE 160
#SCROLL 2
0, //208
#BARLINEON
#MEASURE 1/8
#BPMCHANGE 250
#SCROLL 3
2,
#BARLINEOFF
#MEASURE 7/8
#SCROLL 1.2
1111111,
#BARLINEON
#MEASURE 3/16
#BPMCHANGE 175
#SCROLL 1.71
101,
#BARLINEOFF
#MEASURE 1/16
#SCROLL 0.86
4,
#MEASURE 3/4
#SCROLL 1.71
111111, //213
#BARLINEON
#MEASURE 1/16
#BPMCHANGE 250
#SCROLL 1.2
1,
#BARLINEOFF
#SCROLL 0.6
4,
#MEASURE 7/8
#SCROLL 1.2
1111111,
#BARLINEON
#MEASURE 3/8
#BPMCHANGE 300
#SCROLL 1
111,
#BARLINEOFF
#MEASURE 1/8
#SCROLL 0.5
4,
#MEASURE 2/4
#SCROLL 1
1111, //219
#BARLINEON
#MEASURE 13/16
#BPMCHANGE 275
#SCROLL 1.09
1010101010101,
#BARLINEOFF
#MEASURE 1/16
#SCROLL 2.73
2,
#MEASURE 1/8
#SCROLL 1.09
1,
#BARLINEON
#MEASURE 15/16
#BPMCHANGE 225
#SCROLL 1.33
101010101010101,
#BARLINEOFF
#MEASURE 1/16
#SCROLL 0.67
040, //224
#BARLINEON
#MEASURE 4/4
#BPMCHANGE 250
#SCROLL 1.2
11111111,
#MEASURE 1/4
#BPMCHANGE 300
#SCROLL 1
11,
#BARLINEOFF
#MEASURE 1/8
#SCROLL 0.5
4,
#MEASURE 5/8
#SCROLL 1
11111, //228
#BARLINEON
#MEASURE 3/4
111010101010,
#BARLINEOFF
#MEASURE 1/8
#SCROLL 0.5
4,
#SCROLL 1
10,
#BARLINEON
#MEASURE 4/4
1110101010101010, //232
#MEASURE 1/4
1110,
#BARLINEOFF
#MEASURE 1/16
#SCROLL 2.5
2,
#MEASURE 11/16
#SCROLL 1
01010101010,
#BARLINEON
#MEASURE 4/4
#BPMCHANGE 325
#SCROLL 0.92
1110101010101010, //236
#BPMCHANGE 305
#SCROLL 0.98
10210210,
21021021,
02102111,
11111111,
111111, //241
#GOGOEND
7,
0,
0,
0008, //245
#BPMCHANGE 432
#SCROLL 1.09
#GOGOSTART
5,
0,
0,
000000000000000000000000000000000000000008000000,
#GOGOEND
22000000,
#BARLINEOFF
0, //251
#END

COURSE:Normal
LEVEL:7
BALLOON:2,2,4,5,83
SCOREINIT:1380
SCOREDIFF:0
#START
2,
0,
2,
0,
#BPMCHANGE 200
2
#BPMCHANGE 210
2,
#BPMCHANGE 240
22,
#BPMCHANGE 265
2222,
#BPMCHANGE 275
0, //8
#BPMCHANGE 290
#GOGOSTART
11101010,
11101010,
11101010,
200000200000200000500008000000200000200000000000,
11101010,
11101010,
11101010,
200000200000200000500008000000200000200000000000, //16
#GOGOEND
10000001,
0,
10010010,
01001010,
11101010,
11101010,
11101010,
200000200000200000500008000000200000200000000000, //24
10002001,
02,
10012010,
01002010,
11201020,
11201020,
11201020,
200000200000200000500008000000200000200000000000,//32
#MEASURE 2/4
#BPMCHANGE 200
1111,
#BARLINEOFF
#MEASURE 1/4
#SCROLL 3
0580,
#MEASURE 1/8
#SCROLL 0.53
2,
#SCROLL 0.84
0,
#SCROLL 1.02
0,
#SCROLL 1.42
0,
#MEASURE 1/4
#SCROLL 3
0580, //39
#BARLINEON
#MEASURE 2/4
#SCROLL 1
1111,
#BARLINEOFF
#MEASURE 1/4
#SCROLL 3
0580,
#MEASURE 1/8
#SCROLL 0.53
2,
#SCROLL 0.84
0,
#SCROLL 1.02
0,
#SCROLL 1.42
0,
#MEASURE 1/4
#SCROLL 3
0580, //46
#BARLINEON
#MEASURE 2/4
#SCROLL 0.7
1002,
#BARLINEOFF
#MEASURE 1/4
#SCROLL 3
0580,
#MEASURE 2/4
#SCROLL 0.7
1002,
#MEASURE 1/4
#SCROLL 3
0580, //50
#BARLINEON
#MEASURE 2/4
#SCROLL 0.7
1002,
#BARLINEOFF
#MEASURE 1/4
#SCROLL 3
0580,
#MEASURE 2/4
#BPMCHANGE 99
#SCROLL 1.41
222, //53
#BARLINEON
#MEASURE 1/4
#BPMCHANGE 299
#SCROLL 0.8
1,
#BARLINEOFF
#MEASURE 1/8
#SCROLL 3
58,
#MEASURE 1/4
#SCROLL 0.8
2,
#MEASURE 1/8
#SCROLL 3.25
58,
#MEASURE 1/4
#SCROLL 0.8
2, //58
#MEASURE 1/8
#SCROLL 3.5
58,
#MEASURE 1/4
#SCROLL 0.8
2,
#MEASURE 1/8
#SCROLL 3.75
58,
#MEASURE 1/4
#SCROLL 0.8
2,
#MEASURE 1/8
#SCROLL 4
58, //63
#MEASURE 1/4
#SCROLL 0.8
2,
#MEASURE 1/8
#SCROLL 4.25
58,
#MEASURE 1/4
#SCROLL 0.8
2,
#MEASURE 1/8
#SCROLL 4.5
58,
#MEASURE 1/4
#SCROLL 0.8
2,
#MEASURE 1/8
#SCROLL 4.75
58, //69
#MEASURE 1/4
#SCROLL 0.8
2,
#MEASURE 1/8
#SCROLL 5
58,
#MEASURE 3/16
#SCROLL 0.8
107,
#MEASURE 1/16
#SCROLL 0.9
0,
#SCROLL 1
0,
#SCROLL 1.1
0,
#SCROLL 1.2
0,
#SCROLL 1.3
0,
#SCROLL 1.4
8,
#SCROLL 1.5
0, //79
#BARLINEON
#MEASURE 4/4
#SCROLL 1
20020030,
02002003,
00400400,
#BPMCHANGE 355
0,
#SCROLL 1.32
5,
0,
#MEASURE 2/4
000000000000000000000008,
#BARLINEOFF
#MEASURE 4/4
#BPMCHANGE 299
#SCROLL 1.57
0, //87
#BARLINEON
#SCROLL 1
#GOGOSTART
30230230,
11111010,
2121,
11111020,
10101110,
11101110,
20101110,
11011020, //95
10210210,
11111010,
2121,
11111020,
10101110,
11111010,
#GOGOEND
0,
#SCROLL 3
43, //103
#MEASURE 3/4
#SCROLL 1
#GOGOSTART
400400,
#BARLINEOFF
#MEASURE 1/4
#SCROLL 1.2
30,
#BARLINEON
#MEASURE 2/4
0300,
#BARLINEOFF
#SCROLL 1.3
4004, //107
#BARLINEON
#MEASURE 1/4
00,
#BARLINEOFF
#MEASURE 3/4
#SCROLL 1.4
300300, //109
#BARLINEON
#MEASURE 9/16
#SCROLL 1.5
202020207,
#BARLINEOFF
#MEASURE 1/16
#SCROLL 1.7
0,
#SCROLL 1.9
0,
#SCROLL 2.1
0,
#SCROLL 2.3
0,
#SCROLL 2.5
0,
#SCROLL 2.7
8,
0, //117
#GOGOEND
#BARLINEON
#MEASURE 4/4
#BPMCHANGE 176.5
#SCROLL 1
30020202,
#BPMCHANGE 200
30020202,
#BPMCHANGE 230
30020202,
#BPMCHANGE 240
30230230,
#BPMCHANGE 270
30020202,
30020202,
#BPMCHANGE 290
30020202,
30230230, //125
#BPMCHANGE 300
3003003003003003,
#MEASURE 7/8
00300300300300,
#MEASURE 2/4
#SCROLL 9
600000080000, //128
#MEASURE 4/4
#SCROLL 1
#GOGOSTART
10111020,
10221020,
10111020,
10110210,
10111020,
10221020,
11111020,
30230230, //136
#GOGOEND
11011021,
01011021,
01101020,
100100100000202020200000,
11011021,
01011021,
01101020,
11102222, //144
#SCROLL 1
#GOGOSTART
11111111,
10110110,
11111111,
10110110,
11111111,
10110110,
11111111,
#MEASURE 2/4
#BPMCHANGE 243
#SCROLL 1.23
0,
#GOGOEND
#BARLINEOFF
#SCROLL 1
0, //153
#BARLINEON
#MEASURE 4/4
#GOGOSTART
10102220,
10101110,
20201110,
#MEASURE 1/4
0,
#BARLINEOFF
#MEASURE 3/4
#SCROLL 2
700000000000000800,
#BARLINEON
#MEASURE 4/4
#BPMCHANGE 300
#SCROLL 1
00101110,
11101110,
11101110,
#MEASURE 3/4
111020,
#GOGOEND
#BARLINEOFF
#MEASURE 1/4
#SCROLL 6
0, //163
#BARLINEON
#MEASURE 3/4
#SCROLL 1
#GOGOSTART
1,
2,
12,
700008,
302022,
233,
302022,
233, //171
#MEASURE 4/4
#BPMCHANGE 180
#SCROLL 1.67
100200100200100200101010,
100200100200100200101010,
#GOGOEND
#BPMCHANGE 299
#SCROLL 3
4, //174
#BARLINEOFF
#SCROLL 1
0,
#BARLINEON
0, //176
500008000000200000200000000000500008000000500008,
000000200000500008000000200000000000200000200000,
500008000000500008000000000000200000200000500008,
000000200000500008000000000000200000200000200000,
000000000000200000500008000000000000500008000000,
200000500008000000200000000000000000200000000000,
000000200000500008000000000000500008000000200000,
500008000000000000200000500008000000500008000000, //184
500008000000100000000000100000000000100000100000,
02020110,
10101011,
02020110,
1111,
#MEASURE 3/4
111110,
#BARLINEOFF
#MEASURE 1/8
#BPMCHANGE 149.5
#SCROLL 2
5,
#BARLINEON
#MEASURE 4/4
#BPMCHANGE 160
#SCROLL 1.87
000000000000000000000000000000000000000008000000,
#SCROLL 5.61
3, //193
#BPMCHANGE 320
#SCROLL 1
#GOGOSTART
30230230,
11111010,
2121,
11111020,
10101110,
11101110,
20101110,
11011020, //201
10210210,
11111010,
2121,
11111020,
10101110,
11111010,
#GOGOEND
#BARLINEOFF
#BPMCHANGE 160
#SCROLL 2
0, //208
#BARLINEON
#MEASURE 1/8
#BPMCHANGE 250
#SCROLL 3
2,
#BARLINEOFF
#MEASURE 7/8
#SCROLL 1.2
1111110,
#BARLINEON
#MEASURE 3/16
#BPMCHANGE 175
#SCROLL 1.71
101,
#BARLINEOFF
#MEASURE 1/16
#SCROLL 0.86
4,
#MEASURE 3/4
#SCROLL 1.71
111110, //213
#BARLINEON
#MEASURE 1/16
#BPMCHANGE 250
#SCROLL 1.2
1,
#BARLINEOFF
#SCROLL 0.6
4,
#MEASURE 7/8
#SCROLL 1.2
1111110,
#BARLINEON
#MEASURE 3/8
#BPMCHANGE 300
#SCROLL 1
111,
#BARLINEOFF
#MEASURE 1/8
#SCROLL 0.5
4,
#MEASURE 2/4
#SCROLL 1
1110, //219
#BARLINEON
#MEASURE 13/16
#BPMCHANGE 275
#SCROLL 1.09
1010101010101,
#BARLINEOFF
#MEASURE 1/16
#SCROLL 2.73
2,
#MEASURE 1/8
#SCROLL 1.09
0,
#BARLINEON
#MEASURE 15/16
#BPMCHANGE 225
#SCROLL 1.33
101010101010100,
#BARLINEOFF
#MEASURE 1/16
#SCROLL 0.67
040, //224
#BARLINEON
#MEASURE 4/4
#BPMCHANGE 250
#SCROLL 1.2
11111110,
#MEASURE 1/4
#BPMCHANGE 300
#SCROLL 1
11,
#BARLINEOFF
#MEASURE 1/8
#SCROLL 0.5
4,
#MEASURE 5/8
#SCROLL 1
11110, //228
#BARLINEON
#MEASURE 3/4
111111,
#BARLINEOFF
#MEASURE 1/8
#SCROLL 0.5
4,
#SCROLL 1
0,
#BARLINEON
#MEASURE 4/4
11111110, //232
#MEASURE 1/4
11,
#BARLINEOFF
#MEASURE 1/16
#SCROLL 2.5
2,
#MEASURE 11/16
#SCROLL 1
01010101000,
#BARLINEON
#MEASURE 4/4
#BPMCHANGE 325
#SCROLL 0.92
11111110, //236
#BPMCHANGE 305
#SCROLL 0.98
10210210,
21021021,
02102100,
1111,
111111,//241
#GOGOEND
7,
0,
0,
0008, //245
#BPMCHANGE 432
#SCROLL 1.09
#GOGOSTART
5,
0,
0,
000000000000000000000000000000000000000008000000,
#GOGOEND
22000000,
#BARLINEOFF
0, //251
#END

COURSE:Easy
LEVEL:5
BALLOON:3,5,83
SCOREINIT:2080
SCOREDIFF:0
#START
2,
0,
2,
0,
#BPMCHANGE 200
2
#BPMCHANGE 210
2,
#BPMCHANGE 240
22,
#BPMCHANGE 265
2222,
#BPMCHANGE 275
0, //8
#BPMCHANGE 290
#GOGOSTART
1110,
1110,
1110,
200000000000200000500008000000000000000000000000,
1110,
1110,
1110,
200000000000200000500008000000000000000000000000, //16
#GOGOEND
10000001,
0,
10010010,
01001010,
1110,
1110,
1110,
200000000000200000500008000000000000000000000000, //24
10002001,
02,
10010010,
01001010,
1110,
1110,
1110,
200000000000200000500008000000000000000000000000,//32
#MEASURE 2/4
#BPMCHANGE 200
11,
#BARLINEOFF
#MEASURE 1/4
#SCROLL 3
0580,
#MEASURE 1/8
#SCROLL 0.53
2,
#SCROLL 0.84
0,
#SCROLL 1.02
0,
#SCROLL 1.42
0,
#MEASURE 1/4
#SCROLL 3
0580, //39
#BARLINEON
#MEASURE 2/4
#SCROLL 1
11,
#BARLINEOFF
#MEASURE 1/4
#SCROLL 3
0580,
#MEASURE 1/8
#SCROLL 0.53
2,
#SCROLL 0.84
0,
#SCROLL 1.02
0,
#SCROLL 1.42
0,
#MEASURE 1/4
#SCROLL 3
0580, //46
#BARLINEON
#MEASURE 2/4
#SCROLL 0.7
1002,
#BARLINEOFF
#MEASURE 1/4
#SCROLL 3
0580,
#MEASURE 2/4
#SCROLL 0.7
1002,
#MEASURE 1/4
#SCROLL 3
0580, //50
#BARLINEON
#MEASURE 2/4
#SCROLL 0.7
1002,
#BARLINEOFF
#MEASURE 1/4
#SCROLL 3
0580,
#MEASURE 2/4
#BPMCHANGE 99
#SCROLL 1.41
222, //53
#BARLINEON
#MEASURE 1/4
#BPMCHANGE 299
#SCROLL 0.8
1,
#BARLINEOFF
#MEASURE 1/8
#SCROLL 3
58,
#MEASURE 1/4
#SCROLL 0.8
2,
#MEASURE 1/8
#SCROLL 3.25
58,
#MEASURE 1/4
#SCROLL 0.8
2, //58
#MEASURE 1/8
#SCROLL 3.5
58,
#MEASURE 1/4
#SCROLL 0.8
2,
#MEASURE 1/8
#SCROLL 3.75
58,
#MEASURE 1/4
#SCROLL 0.8
2,
#MEASURE 1/8
#SCROLL 4
58, //63
#MEASURE 1/4
#SCROLL 0.8
2,
#MEASURE 1/8
#SCROLL 4.25
58,
#MEASURE 1/4
#SCROLL 0.8
2,
#MEASURE 1/8
#SCROLL 4.5
58,
#MEASURE 1/4
#SCROLL 0.8
2,
#MEASURE 1/8
#SCROLL 4.75
58, //69
#MEASURE 1/4
#SCROLL 0.8
2,
#MEASURE 1/8
#SCROLL 5
58,
#MEASURE 3/16
#SCROLL 0.8
0,
#MEASURE 1/16
#SCROLL 0.9
0,
#SCROLL 1
0,
#SCROLL 1.1
0,
#SCROLL 1.2
0,
#SCROLL 1.3
0,
#SCROLL 1.4
0,
#SCROLL 1.5
0, //79
#BARLINEON
#MEASURE 4/4
#SCROLL 1
20020030,
02002003,
00400400,
#BPMCHANGE 355
0,
#SCROLL 1.32
5,
0,
#MEASURE 2/4
000000000000000000000008,
#BARLINEOFF
#MEASURE 4/4
#BPMCHANGE 299
#SCROLL 1.57
0, //87
#BARLINEON
#SCROLL 1
#GOGOSTART
30030030,
1120,
2121,
1120,
1212,
1120,
2121,
11011000, //95
10010010,
1220,
2121,
1220,
1212,
1221,
#GOGOEND
0,
#SCROLL 3
43, //103
#MEASURE 3/4
#SCROLL 1
#GOGOSTART
400400,
#BARLINEOFF
#MEASURE 1/4
#SCROLL 1.2
30,
#BARLINEON
#MEASURE 2/4
0300,
#BARLINEOFF
#SCROLL 1.3
4004, //107
#BARLINEON
#MEASURE 1/4
00,
#BARLINEOFF
#MEASURE 3/4
#SCROLL 1.4
300300, //109
#BARLINEON
#MEASURE 9/16
#SCROLL 1.5
6,
#BARLINEOFF
#MEASURE 1/16
#SCROLL 1.5
008,
#SCROLL 1.9
0,
#SCROLL 2.1
0,
#SCROLL 2.3
0,
#SCROLL 2.5
0,
#SCROLL 2.7
0,
0, //117
#GOGOEND
#BARLINEON
#MEASURE 4/4
#BPMCHANGE 176.5
#SCROLL 1
30020200,
#BPMCHANGE 200
30020200,
#BPMCHANGE 230
30020200,
#BPMCHANGE 240
30030030,
#BPMCHANGE 270
30020200,
30020200,
#BPMCHANGE 290
30020200,
30030030, //125
#BPMCHANGE 300
3003003003003003,
#MEASURE 7/8
00300300300300,
#MEASURE 2/4
#SCROLL 9
600000080000, //128
#MEASURE 4/4
#SCROLL 1
#GOGOSTART
1112,
1212,
1112,
1220,
1112,
1212,
1112,
30030030, //136
#GOGOEND
11011001,
01011001,
01101000,
11102000,
11011001,
01011001,
01101000,
1120, //144
#SCROLL 1
#GOGOSTART
30030030,
30030030,
30030030,
30030030,
30030030,
30030030,
600000000000000000000000000000000000000000000008,
#MEASURE 2/4
#BPMCHANGE 243
#SCROLL 1.23
0,
#GOGOEND
#BARLINEOFF
#SCROLL 1
0, //153
#BARLINEON
#MEASURE 4/4
#GOGOSTART
11,
1210,
1110,
#MEASURE 1/4
0,
#BARLINEOFF
#MEASURE 3/4
#SCROLL 2
700000000000000800,
#BARLINEON
#MEASURE 4/4
#BPMCHANGE 300
#SCROLL 1
0110,
1110,
1111,
#MEASURE 3/4
500000000000000000000008000000000000,
#GOGOEND
#BARLINEOFF
#MEASURE 1/4
#SCROLL 6
0, //163
#BARLINEON
#MEASURE 3/4
#SCROLL 1
#GOGOSTART
1,
1,
11,
700008,
3,
044,
3,
044, //171
#MEASURE 4/4
#BPMCHANGE 180
#SCROLL 1.67
100100100100100000101000,
100100100100100000101000,
#GOGOEND
#BPMCHANGE 299
#SCROLL 3
4, //174
#BARLINEOFF
#SCROLL 1
0,
#BARLINEON
0, //176
500008000000200000200000000000500008000000500008,
000000200000500008000000200000000000200000200000,
500008000000500008000000000000200000200000500008,
000000200000500008000000000000200000200000200000,
000000000000200000500008000000000000500008000000,
200000500008000000200000000000000000200000000000,
000000200000500008000000000000500008000000200000,
500008000000000000200000500008000000500008000000, //184
500008000000000000000000200000000000000000000000,
12,
12,
12,
1111,
#MEASURE 3/4
111,
#BARLINEOFF
#MEASURE 1/8
#BPMCHANGE 149.5
#SCROLL 2
5,
#BARLINEON
#MEASURE 4/4
#BPMCHANGE 160
#SCROLL 1.87
000000000000000000000000000000000000000008000000,
#SCROLL 5.61
3, //193
#BPMCHANGE 320
#SCROLL 1
#GOGOSTART
30030030,
1120,
2121,
1120,
1212,
1120,
2121,
11011000, //201
10010010,
1220,
2121,
1220,
1212,
1221,
#GOGOEND
#BARLINEOFF
#BPMCHANGE 160
#SCROLL 2
0, //208
#BARLINEON
#MEASURE 1/8
#BPMCHANGE 250
#SCROLL 3
2,
#BARLINEOFF
#MEASURE 7/8
#SCROLL 1.2
0101010,
#BARLINEON
#MEASURE 3/16
#BPMCHANGE 175
#SCROLL 1.71
100,
#BARLINEOFF
#MEASURE 1/16
#SCROLL 0.86
4,
#MEASURE 3/4
#SCROLL 1.71
111, //213
#BARLINEON
#MEASURE 1/16
#BPMCHANGE 250
#SCROLL 1.2
1,
#BARLINEOFF
#SCROLL 0.6
4,
#MEASURE 7/8
#SCROLL 1.2
0101010,
#BARLINEON
#MEASURE 3/8
#BPMCHANGE 300
#SCROLL 1
101,
#BARLINEOFF
#MEASURE 1/8
#SCROLL 0.5
4,
#MEASURE 2/4
#SCROLL 1
11, //219
#BARLINEON
#MEASURE 13/16
#BPMCHANGE 275
#SCROLL 1.09
1000100010001,
#BARLINEOFF
#MEASURE 1/16
#SCROLL 2.73
2,
#MEASURE 1/8
#SCROLL 1.09
0,
#BARLINEON
#MEASURE 15/16
#BPMCHANGE 225
#SCROLL 1.33
100010001000100,
#BARLINEOFF
#MEASURE 1/16
#SCROLL 0.67
040, //224
#BARLINEON
#MEASURE 4/4
#BPMCHANGE 250
#SCROLL 1.2
1111,
#MEASURE 1/4
#BPMCHANGE 300
#SCROLL 1
1,
#BARLINEOFF
#MEASURE 1/8
#SCROLL 0.5
4,
#MEASURE 5/8
#SCROLL 1
01010, //228
#BARLINEON
#MEASURE 3/4
111,
#BARLINEOFF
#MEASURE 1/8
#SCROLL 0.5
4,
#SCROLL 1
0,
#BARLINEON
#MEASURE 4/4
1111, //232
#MEASURE 1/4
1,
#BARLINEOFF
#MEASURE 1/16
#SCROLL 2.5
2,
#MEASURE 11/16
#SCROLL 1
00010001000,
#BARLINEON
#MEASURE 4/4
#BPMCHANGE 325
#SCROLL 0.92
1111, //236
#BPMCHANGE 305
#SCROLL 0.98
10010010,
01001001,
00100100,
1111,
111111,//241
#GOGOEND
7,
0,
0,
0008, //245
#BPMCHANGE 432
#SCROLL 1.09
#GOGOSTART
5,
0,
0,
000000000000000000000000000000000000000008000000,
#GOGOEND
22000000,
#BARLINEOFF
0, //251
#END
