//TJADB Project
TITLE:Extreme End
TITLEJA:Extreme End
SUBTITLE:--IKUTO feat. Aira
SUBTITLEJA:IKUTO feat. Aira
BPM:300
WAVE:Extreme End.ogg
OFFSET:-2.448
DEMOSTART:32.855 //SONG_ID:extred //Shinuchi:
3680/2620/1860/1200/-

COURSE:Edit
LEVEL:10
BALLOON:30
SCOREINIT:890
SCOREDIFF:0
#START
#SCROLL 0.75
3,
000000111222,
11111111,
0,
111222111222,
1, //6
#SCROLL 1
30211122,
1110101010102010,
10211122,
1110101020102010,
10211122,
1110101010102020,
1000200010200011,
10201200, //14
11212211,
22212211,
12121122,
1020101040001111,
11221211,
12112211,
22112122,
12212210, //22
300111200100,
101010200000100100200200,
1000221120102010,
2211221120002000,
1000111120102000,
2222102010500000,
000000000008000000000000000000400000000000000000,
500000000000000000000000000000000008000000000000, //30
#SCROLL 0.5
2211,
01,
1002,
02,
3006,
000000000000000000000000000000000008000000000000,
2000112000112000,
1120001120000000, //38
#SCROLL 1
#GOGOSTART
1111201000102010,
1111201000102010,
2211221120100040,
0000111010102010,
2020202011102020,
1110101020002000,
2020102020102222,
10112121, //46
1111201000102010,
1111201000102010,
2211221120100040,
0000101011102010,
40040040,
30032030,
1110201022201020,
30030030, //54
#GOGOEND
7,
#SCROLL 0.9
0,
#SCROLL 0.85
0,
#SCROLL 0.8
8,
#SCROLL 0.75
20120111,
20120111,
20120111,
2000001120000000, //62
21121111,
21121111,
21121111,
22121221,
21121111,
21121111,
21121111,
1110101020202020, //70
#SCROLL 0.5
10221022,
11221000,
12121110,
111111200000,
10221020,
12101020,
00012010,
21201020, //78
111222,
122122,
102120102120,
102000200100,
10221022,
11221020,
00012111,
1110201110000000, //86
#SCROLL 1
#GOGOSTART
1111111111111111,
2220101020102010,
12112121,
2222222210000000,
1110222011102220,
1110201110201111,
1110201020201010,
2220102222222222, //94
500000000000000000000000000000000000000008000000,
21121121,
11211211,
21121122,
111111111111,
212121212121,
2121212121212120,
40030040, //102
#GOGOEND
2211102010201020,
01121121,
2211112211112000,
1010101022201010,
22121212,
0010201022202010,
500000000000000000000000000000000008000000200000,
0011101020201010, //110
2211102010201020,
02121121,
2211112211112000,
1010101022201010,
2020111010201040,
0022201020102010, //116
10221020,
11221020,
1110201020201010,
2220101022201010,
300000000300000000101010,
2220101022101010,
2110211021102000,
33, //124
#GOGOSTART
1111221000102010,
1111221000102010,
2211221122100040,
0000111120102010,
2220102220102010,
2211201011112010,
2222102222102222,
1010101022201000, //132
1111221000102010,
1111221000102010,
2211221122100040,
0000111010102010,
40040040,
32232232,
11212122,
600000000000000000000008000000000000000000000000, //140
32232231,
41141141,
2211221121212121,
20040040,
#GOGOEND
1010201011102020,
11211121,
1010201011102020,
11211121, //148
1010201011102020,
11211121,
1111221122112220,
34,
30030011,
200020002000100010001000200100100100200100200000,
30230230,
0,
0,
0, //158
#END

COURSE:Oni
LEVEL:10
BALLOON:
SCOREINIT:440,1250
SCOREDIFF:113
#START
0,
0,
0,
0,
0,
0, //6
30111131,
11111111,
30111131,
11111111,
30111131,
11111111,
10301301,
11301301, //14
11201210,
21102010,
11201210,
21102010,
11201210,
21102010,
11201210,
21102010, //22
11121121,
10201120,
11121120,
1212,
11212121,
20102220,
10201200,
11212121, //30
2222,
22222020,
2112,
22222020,
12221222,
1020102010201011,
2000112000112000,
1120001120000000, //38
#GOGOSTART
11121121,
21121121,
21211212,
11211121,
21211121,
21211121,
5,
000000000008000000000000200200200000100000100000, //46
11121121,
21121121,
21211212,
11211121,
20120120,
10210210,
11112222,
30030030, //54
#GOGOEND
21012110,
21012110,
21012111,
21112111,
21012110,
21012110,
21012111,
21212111, //62
21012110,
21012110,
21012111,
22122111,
21012110,
21012110,
20020000,
12, //70
11,
200000111111,
11,
200111200000,
11,
200000111111,
11,
11201120, //78
100100100100200020002000,
101000100100,
100100100100200020002000,
101000100100,
11112020,
11112020,
11101110,
21021000, //86
#GOGOSTART
500000000000000000000000000000000000000008000000,
11221212,
11221212,
500000000000000008000000200000000000000000000000,
11221122,
500008000000200000500008000000200000500008000000,
11221212,
500008000000200000500000000000000008000000200000, //94
5,
0,
0,
000008000000200000500000000000000008000000200000,
500008000000200000500008000000200000500008000000,
222222,
222222,
30030030, //102
#GOGOEND
1110201000102010,
01211121,
11210121,
1010200011102000,
11210121,
1010200011102000,
500000000000000000000000000000000008000000200000,
01212111, //110
1110201000102010,
01211121,
11210121,
1010200011102000,
11210121,
01212120, //116
5,
000000000000000000000000000000000008000000000000,
0,
0,
300000000300000000101010,
22212221,
22122120,
33, //124
#GOGOSTART
11121121,
11121121,
21211212,
11211121,
21211121,
21211121,
5,
000000000008000000000000200200200000100000100000, //132
11121121,
11121121,
21211212,
11211121,
10210210,
20120120,
1122,
500000000000000000000008000000000000000000000000, //140
30230230,
40140140,
600000000000000000000000000008000000000000000000,
30030030,
#GOGOEND
6,
000000000000000000000000000000000000000000000008,
0,
0, //148
0,
0,
1122,
33,
4000004000001120,
22112211,
30230230,
0,
0,
0, //158
#END

COURSE:Hard
LEVEL:8
BALLOON:20,10,12
SCOREINIT:530,2100
SCOREDIFF:135
#START
0,
0,
0,
0,
0,
0, //6
3003,
00001111,
3003,
00001111,
3003,
00001111,
10300300,
10300300, //14
11101010,
11101010,
11101010,
11102010,
11101010,
11101010,
11101010,
11102010, //22
11101011,
10101110,
1212,
1212,
11101011,
10101110,
10201200,
10201200, //30
2222,
02,
2002,
02,
2006,
0,
000000000000000000000000000000000008000000000000,
0, //38
#GOGOSTART
1212,
10201110,
10201201,
0212,
10201110,
10201110,
5,
000000000008000000000000000000000000000000000000, //46
1212,
10201110,
10201201,
00201110,
10010010,
20020020,
1122,
30030030, //54
#GOGOEND
9,
0,
0,
9,
8,
0,
0,
0, //62
30013010,
30013010,
30013010,
40024010,
30013010,
30013010,
6,
000000000000000000000008000000000000000000000000, //70
11,
20001110,
11,
22,
11,
20001110,
11,
1202, //78
11,
20001110,
11101010,
22,
11,
20001110,
11101010,
22022000, //86
#GOGOSTART
500000000000000000000000000008000000000000000000,
11102220,
11102220,
2,
11101110,
2,
11101110,
2, //94
11102220,
11102220,
11102220,
1,
11102220,
11102220,
11102220,
10010010, //102
#GOGOEND
10210201,
00201110,
10210120,
10201110,
10201110,
10201110,
7,
08, //110
10210201,
00201110,
10210120,
10201110,
10201110,
10201110, //116
7,
0008,
0,
0,
30030000,
22212220,
22122000,
33, //124
#GOGOSTART
10201120,
10201120,
10201201,
00201120,
10201120,
10201120,
5,
000000000008000000000000000000000000000000000000, //132
10201120,
10201120,
10201201,
00201120,
10010020,
20120120,
1122,
500000000000000000000008000000000000000000000000, //140
30030030,
40040040,
600000000000000000000000000008000000000000000000,
30030030,
#GOGOEND
6,
000000000000000000000000000000000000000000000008,
0,
0, //148
0,
0,
1122,
33,
40040000,
22112211,
30030030,
0,
0,
0, //158
#END

COURSE:Normal
LEVEL:6
BALLOON:7,14,7,8
SCOREINIT:530,3110
SCOREDIFF:143
#START
0,
0,
0,
0,
0,
0, //6
3003,
0,
3003,
0,
3003,
0,
00300300,
00300300, //14
1111,
1120,
1111,
1120,
1111,
1120,
1111,
1120, //22
1120,
1120,
1212,
1212,
1120,
1120,
7,
08, //30
2222,
02,
2002,
02,
2006,
0,
000000000000000000000000000000000008000000000000,
0, //38
#GOGOSTART
1111,
2222,
10101101,
0,
2222,
1111,
5,
000000000008000000000000000000000000000000000000, //46
1111,
2222,
10101101,
0,
10010010,
20020020,
1111,
40040040, //54
#GOGOEND
9,
0,
0,
9,
8,
0,
0,
0, //62
33,
33,
33,
44,
33,
33,
6,
000000000000000000000008000000000000000000000000, //70
11,
2,
1,
22,
11,
2,
1,
0202, //78
11,
2,
1,
22,
11,
2,
1,
22022000, //86
#GOGOSTART
500000000000000000000000000008000000000000000000,
1122,
1122,
2,
1212,
1,
1212,
1, //94
1122,
1120,
1122,
1120,
1122,
1120,
1212,
1, //102
#GOGOEND
10110101,
0212,
10010010,
0212,
1120,
1120,
7,
08, //110
10110101,
0212,
10010010,
0212,
1120,
1120, //116
7,
0008,
0,
0,
30030000,
2222,
22022000,
33, //124
#GOGOSTART
1212,
1212,
10102201,
0212,
1122,
1122,
5,
000000000008000000000000000000000000000000000000, //132
1212,
1212,
10102201,
0212,
10010020,
2,
1122,
2, //140
30030030,
40040040,
4,
30030030,
#GOGOEND
6,
000000000000000000000000000000000000000000000008,
0,
0, //148
0,
0,
1122,
33,
40040000,
0,
30030030,
0,
0,
0, //158
#END

COURSE:Easy
LEVEL:5
BALLOON:6,12,6,7
SCOREINIT:440,4600
SCOREDIFF:120
#START
0,
0,
0,
0,
0,
0, //6
3003,
0,
3003,
0,
3003,
0,
00300300,
00300300, //14
11,
1,
11,
1,
11,
1,
11,
1, //22
2,
2,
11,
1,
11,
11,
7,
08, //30
2,
0,
2,
0,
6,
0,
000000000000000000000000000000000008000000000000,
0, //38
#GOGOSTART
1,
1,
10101001,
0,
1,
1110,
5,
000000000008000000000000000000000000000000000000, //46
1,
1,
10101001,
0,
2,
2,
1110,
4, //54
#GOGOEND
9,
0,
0,
9,
8,
0,
0,
0, //62
33,
33,
33,
44,
33,
33,
6,
000000000000000000000008000000000000000000000000, //70
1,
2,
1,
22,
1,
2,
1,
0202, //78
1,
2,
1,
22,
1,
2,
1,
0, //86
#GOGOSTART
500000000000000000000000000008000000000000000000,
1111,
1111,
2,
1111,
2,
1111,
2, //94
1111,
1120,
1111,
2,
1111,
1120,
1111,
2, //102
#GOGOEND
10010101,
02,
10010010,
0,
1110,
1110,
7,
08, //110
10010101,
02,
10010010,
0,
1110,
1110, //116
7,
0008,
0,
0,
30030000,
0,
0,
33, //124
#GOGOSTART
1110,
1110,
10101001,
0,
1110,
1110,
5,
000000000008000000000000000000000000000000000000, //132
1110,
1110,
10101001,
0,
10010020,
2,
1111,
2, //140
30030030,
30030030,
3,
30030030,
#GOGOEND
6,
000000000000000000000000000000000000000000000008,
0,
0, //148
0,
0,
1111,
44,
30030000,
0,
30030030,
0,
0,
0, //158
#END
