//TJADB Project
TITLE:Unbreakable Love
TITLEJA:永不失聯的愛 Unbreakable Love
TITLEZH:永不失联的爱
SUBTITLE:--
SUBTITLEJA:
SUBTITLEZH:
BPM:85
WAVE:Unbreakable Love.ogg
OFFSET:-3.059
DEMOSTART:69.001

COURSE:Oni
LEVEL:6
BALLOON:24
SCOREINIT:3080
SCOREDIFF:0
#START
12200000,
02112211,
12200000,
02112211,
12201020,
10001202,
10120212,
11212122, //8
1011100020001000,
12212122,
1011100020001000,
12212122,
1011100020001000,
11221122,
300000300000600000000000000008000000000000200100,
1021101020102020, //16
1022200020002010,
12212122,
1022200020102110,
12212122,
1011100020002010,
12212122,
300000600000000000000000000000000008000000200200,
1021021040101111, //24
#GOGOSTART
1012201020111010,
3011100020102220,
1012201020111020,
3030000010102022,
1000201010102022,
1000201011102010,
1110201110201020,
3021021040102220, //32
1012201020111010,
3011100020102220,
1012201020111020,
3030000010102022,
1000201010102022,
10211121,
500000000000000000000000000000000000000008000000,
3021021040101111, //40
#GOGOEND
10210022,
10210000,
12212022,
10210020,
10210122,
10021002,
7,
8,
0, //49
#END

COURSE:Hard
LEVEL:4
BALLOON:20
SCOREINIT:4470
SCOREDIFF:0
#START
22200000,
0222,
22200000,
0222,
12200000,
10200200,
10120000,
12212010, //8
11102010,
12201020,
11102010,
12201020,
11102010,
12201212,
300000300000600000000000000008000000000000100000,
10221020, //16
11102010,
12201220,
11102110,
12201220,
11102010,
12201212,
300000600000000000000000000000000008000000000000,
00022020, //24
#GOGOSTART
1010201020111010,
33300022,
1010201020111020,
33001121,
10201121,
10211021,
10211050,
080000000200200000200000, //32
1010201020111010,
33300022,
1010201020111020,
33001121,
10201121,
10211011,
500000000000000000000000000000000000000008000000,
00002022, //40
#GOGOEND
10210022,
10210000,
12212022,
10210000,
10210020,
12,
7,
8,
0, //49
#END

COURSE:Normal
LEVEL:2
BALLOON:15,17
SCOREINIT:7880
SCOREDIFF:0
#START
2200,
02,
2200,
02,
1200,
1,
1,
12, //8
1120,
1220,
1120,
1220,
1120,
1220,
300000000000600000000000000008000000000000000000,
12, //16
1120,
1220,
1122,
1220,
1120,
1220,
300000600000000000000000000000000008000000000000,
0022, //24
#GOGOSTART
11102220,
33300020,
10111010,
33002220,
10002220,
10011010,
7,
080000000000200000200000, //32
11102220,
33300020,
10111010,
33002220,
10002220,
1011,
500000000000000000000000000000000000000008000000,
0021, //40
#GOGOEND
1001,
1,
1021,
1,
1021,
12,
7,
8,
0, //49
#END

COURSE:Easy
LEVEL:2
BALLOON:12,14
SCOREINIT:11170
SCOREDIFF:0
#START
2,
02,
2,
02,
1,
2,
2,
1, //8
1100,
12,
1100,
12,
1100,
12,
300000000000600000000000000008000000000000000000,
11, //16
1100,
2220,
1101,
2220,
1100,
2220,
600000000000000000000000000000000008000000000000,
02, //24
#GOGOSTART
1122,
3300,
1122,
3022,
1022,
1022,
7,
080000000000200000000000, //32
1122,
3300,
1122,
3022,
1022,
1022,
500000000000000000000000000000000000000008000000,
02, //40
#GOGOEND
1,
1,
12,
1,
2002,
22,
7,
8,
0, //49
#END
