//TJADB Project
TITLE:Those Bygone Years
TITLEJA:Those Bygone Years
TITLEZH:那些年
SUBTITLE:--
SUBTITLEJA:
SUBTITLEZH:
BPM:79
WAVE:Those Bygone Years.ogg
OFFSET:-3.240
DEMOSTART:72.350

COURSE:Oni
LEVEL:6
BALLOON:28,19,19,26
SCOREINIT:3580
SCOREDIFF:0
#START
2022,
20202220,
2022,
20000022,
2,
2000000000000112, //6
1010201110000112,
1010201120000020,
1011200110102021,
1000000000000112,
1000201010000001,
1010201110102020,
1010201110102021,
1, //14
1010201120102020,
1011200120102020,
1011201020102020,
500000000000000000000008000000000000000000000000,
2020201120112021,
1011201020000000,
1011102110102110,
7,
8000000000000112, //23
#GOGOSTART
1011201120102112,
1011201120102020,
1011202110102010,
7000000000800112,
1011201120102112,
1011201120201020,
1011210022212010,
600000000000000000000000000008000000000100100200, //31
1011201120102112,
1011201120102020,
1011202110102010,
7000000000800112,
1011201120102112,
1011201120201020,
1011210022212010,
600000000008000000000100100000000000100000100000,
#GOGOEND
7008,
0, //41
#END

COURSE:Hard
LEVEL:3
BALLOON:18,16,16,22
SCOREINIT:6050
SCOREDIFF:0
#START
22,
22,
2022,
2,
2,
2, //6
11101000,
11102000,
11101110,
1,
10111000,
10112020,
1010100020101011,
1, //14
11101120,
1022,
1011100010102000,
2,
22201120,
1011100020000000,
11102220,
9009,
8, //23
#GOGOSTART
1011101010002000,
1011101010002000,
1011100010101000,
70000800,
1011101020002000,
1011101020002000,
1011100020202000,
600000000000000000000000000008000000000000000000, //31
1011101010002000,
1011101010002000,
1011100010101000,
70000800,
1011101020002000,
1011101020002000,
1011100020202000,
3011,
#GOGOEND
7008,
0, //41
#END

COURSE:Normal
LEVEL:2
BALLOON:20,13,11,11,13
SCOREINIT:10780
SCOREDIFF:0
#START
22,
2,
22,
2,
2,
2, //6
11,
12,
1110,
1,
1110,
1120,
7,
08000000, //14
1110,
12,
1110,
2,
2220,
1110,
1122,
9009,
8, //23
#GOGOSTART
11101000,
11102000,
1111,
70000800,
11101000,
11102000,
1122,
600000000000000000000000000008000000000000000000, //31
11101000,
11102000,
1111,
70000800,
11101000,
11102000,
1122,
3011,
#GOGOEND
7008,
0, //41
#END

COURSE:Easy
LEVEL:1
BALLOON:16,10,9,9,11
SCOREINIT:16020
SCOREDIFF:0
#START
2,
2,
22,
2,
2,
2,
1,
1,
11,
1,
11,
11,
7,
08000000, //14
11,
1,
11,
2,
22,
11,
12,
9009,
8, //23
#GOGOSTART
1110,
1110,
12,
70000800,
1110,
1110,
12,
600000000000000000000000000008000000000000000000,
1110,
1110,
12,
70000800,
1110,
1110,
12,
31,
#GOGOEND
7008,
0, //41
#END
