//TJADB Project
TITLE:Break Through the Dome
TITLEJA:Break Through the Dome
SUBTITLE:--Arknights
SUBTITLEJA:「アークナイツ -明日方舟-」より
BPM:190
WAVE:Break Through the Dome.ogg
OFFSET:-2.207
DEMOSTART:46.418 //shinuchi:
6450/3870/1760/1020

COURSE:Oni
LEVEL:9
BALLOON:11,11
SCOREINIT:350,1090
SCOREDIFF:83
#START
0,
0,
0,
1000101110200020,
1020111020102020,
1000111010200020,
1020111020102220,
1000111010200020,
1020111020102020,
1000111010200020,
1020101212221222, //11
1000101110200020,
1011202010112020,
1000202210200020,
1011202010112010,
1000101110200020,
1011202010112020,
1011101110111110,
33040300, //19
1000102220102010,
1000100020112010,
1000102220102011,
1000102220002020,
1000102220102010,
1000100010202220,
1000101120102010,
1000102220202020, //27
1000101110201050,
000000000000000000000000000008000000200000000000,
1000101110201050,
000000000000000000000000000008000000200000000000,
33040122,
3040304000112222,
1000102220112020,
33040430, //35
#GOGOSTART
1000201122102010,
1000201110221120,
1000201110112210,
3030403000222020,
1000201122102010,
1022112222112212,
1022102011102060,
000000000000000000000000000008000000200200200200, //43
1000201122102010,
1020202220112210,
1000201122102020,
3030004000112020,
1111221111112000,
1111221111112000,
70000008,
3030004000121122, //51
#GOGOEND
1000121122112120,
1022112010102011,
2011102011102211,
11020222,
1012111211221221,
2011201210201200,
1112112212212210,
34340210, //59
1022121222121210,
1022121222121220,
1022121222121211,
2000221122112222,
1000112211221111,
2211221122112222,
1122112211221110,
2211112211112211,
2211112211112222,
1212121212121212,
500000000000000000000000000000000000000008000000, //70
#GOGOSTART
3000201122102010,
1000201110221120,
1000201110112210,
3030403000222020,
1000201122102010,
1022112222112212,
1022102011102060,
000000000000000000000000000008000000200200200200, //78
1000201110112010,
1020202220112210,
1011201122102220,
3030004000112020,
1111221111112000,
1111221111112000,
70000008,
33040120, //86
#GOGOEND
1000101110201020,
1011202011202000,
1000201120201020,
2011202010221020,
1000101110201020,
1011202010112020,
1011201020221020,
1011202011221210, //94
1000111020101020,
1011104010401040,
1000202210202010,
1010102220102210,
1000101010222020,
1110102011201020,
1120201011202010,
12230343,
0,
0, //104
#END

COURSE:Hard
LEVEL:7
BALLOON:9,17,9,17,9,17,9
SCOREINIT:490,1990
SCOREDIFF:115
#START
0,
0,
0,
10101202,
01102020,
10101202,
01102020,
10101202,
01102020,
10101202,
01102222, //11
10111202,
1111,
10111202,
10121020,
10111202,
1111,
11111110,
33030300, //19
10120121,
10102121,
10120121,
1222,
10120121,
1222,
10120221,
10120220, //27
10111015,
000000000000000000000000000008000000200000000000,
10111015,
000000000000000000000000000008000000200000000000,
33030020,
33330020,
9009,
8, //35
#GOGOSTART
1000101110100010,
01120201,
1000101110102000,
33030020,
1000101110101020,
0010111011102000,
7,
0008, //43
1000101110102020,
11030122,
10101120,
3030003000111000,
10121120,
10121120,
7008,
3030003000111010, //51
#GOGOEND
1000100010102220,
10101120,
1000100010102220,
11020220,
1000100010102220,
1111,
7,
0008, //59
20111122,
20112122,
20112222,
20101120,
1000101020002220,
20112111,
2000101020002220,
10101122,
1000100010102220,
9009,
8, //70
#GOGOSTART
1000101110100010,
01120201,
1000101110102000,
33030020,
1000101110101020,
0010111011102000,
7,
0008, //78
1000101110102020,
11030122,
10101120,
3030003000111000,
10121120,
10121120,
7008,
3030003000111010, //86
#GOGOEND
10221020,
10221020,
10222020,
11221020,
10221020,
10221020,
10212010,
11221020, //94
10111202,
10121212,
10111202,
10111212,
10111202,
10121212,
12201220,
12230333,
0,
0, //104
#END

COURSE:Normal
LEVEL:6
BALLOON:7,12,12,12,7,12,12
SCOREINIT:810,4350
SCOREDIFF:233
#START
0,
0,
0,
11,
0,
11,
0,
11,
0,
11,
0, //11
11,
1,
11,
1,
11,
11,
1111,
30030000, //19
10101110,
1,
10101110,
12,
10101110,
1,
10101110,
10020000, //27
10101005,
000000000000000000000000000008000000000000000000,
10101005,
000000000000000000000000000008000000000000000000,
30030000,
30030000,
9009,
8, //35
#GOGOSTART
10101101,
1112,
10111020,
30030000,
10101101,
1112,
7,
0008, //43
10111020,
1112,
10111020,
30030000,
1112,
1112,
7,
0008, //51
#GOGOEND
1110,
11,
1110,
10020000,
1110,
11,
7,
0008, //59
22,
2,
2220,
22,
11,
1,
1110,
11,
1,
9009,
8, //70
#GOGOSTART
10101101,
1112,
10111020,
30030000,
10101101,
1112,
7,
0008, //78
10111020,
1112,
10111020,
30030000,
1112,
1112,
7,
0008, //86
#GOGOEND
11,
1011,
12,
22,
11,
1011,
12,
22, //94
11,
1011,
11,
1011,
11,
1011,
11,
10030030,
0,
0, //104
#END

COURSE:Easy
LEVEL:3
BALLOON:5,10,10,10,5,10,10
SCOREINIT:710,7200
SCOREDIFF:235
#START
0,
0,
0,
1,
0,
1,
0,
1,
0,
1,
0, //11
11,
0,
11,
0,
11,
0,
11,
3, //19
1110,
1,
1110,
12,
1110,
1,
1110,
1, //27
10001005,
000000000000000000000000000008000000000000000000,
10001005,
000000000000000000000000000008000000000000000000,
3,
3,
9009,
8, //35
#GOGOSTART
1110,
1110,
12,
3,
1110,
1110,
7,
0008, //43
1110,
1110,
12,
3,
1110,
1110,
7,
0008, //51
#GOGOEND
11,
1,
11,
1,
11,
1,
7,
0008, //59
2,
2,
22,
2,
1,
1,
11,
1,
1,
9009,
8, //70
#GOGOSTART
1110,
1110,
12,
3,
1110,
1110,
7,
0008, //78
1110,
1110,
12,
3,
1110,
1110,
7,
0008, //86
#GOGOEND
1,
11,
1,
2,
1,
11,
1,
2, //94
1,
11,
1,
11,
1,
11,
1,
00030030,
0,
0, //104
#END
