//TJADB Project
TITLE:Valsqotch
TITLEJA:Valsqotch
SUBTITLE:--owl*tree feat.chi*tree/maimai DX
SUBTITLEJA:owl*tree feat.chi*tree 「maimai でらっくす」より
BPM:125
WAVE:Valsqotch.ogg
OFFSET:-1.489
DEMOSTART:16.532 //shinuchi:
3180/2250/1390/850

COURSE:Oni
LEVEL:10
BALLOON:25
SCOREINIT:330,950
SCOREDIFF:75
#START
300200002000200202000200,
000200002000200202000200,
300200002000200202000200,
000200002000200202001202,
100200102002101200102202,
100200102002101202122102,
100200102002122122122122,
100000202020100020002000100000100000400
#SCROLL 2
010200020, //8
#GOGOSTART
101221202102101221202102,
101221202103003004001202,
101221202102101221202102,
101221202103003004002202,
102102002111201201001222,
102102111222101002001202,
100200101202101200101202,
111202111202111111200000,
#GOGOEND
#MEASURE 1/4
#SCROLL 1
1, //17
#MEASURE 4/4
101202100201001202111202,
100001200200101100222202,
101202100201001222111202,
100001200200202202100200,
102201002201002122122122,
100001200200111100400222,
101202100201001202111202,
100111200112200122200200, //25
#MEASURE 3/4
#SCROLL 1.33
102102001200122100,
102102001200122112,
102102001200122100,
102102001200122112,
#SCROLL 1.5
122122122122,
122121212121,
#SCROLL 1.66
323232323141,
600000000008000000
#SCROLL 1.5
000000100000200000, //33
100112202100100202,
100112201200100202,
100112202100100202,
100112201200100222,
100112202100100202,
100112201200200200,
100201001202100100,
111222111200000101, //41
200111201201202102,
112102111200100202,
500008000000200000500008000000200020,
101101202100100202,
500000000008000010200000200020100010,
101201101200200100,
101102001200100200,
600000000000000008000000200000200000,
101102001200100200,
111212112101003000, //51
#MEASURE 4/4
#SCROLL 1
111200111200112112200201,
102102101202112112101001,
200100111200112112202002,
002102101010100111200100,
112122112122112122111200,
212121202220102110100112,
100200100200101202101202,
111222111222112112100000, //59
700000000000000000000000000000000000000000000008,
0,
302220300000401110400000,
401120300000302110400000,
#SCROLL 1.5
100200102202101202102202,
100200102202101202122102,
100100200200112112112112,
102020102020102020102020100000100000400
#SCROLL 2
010200020, //67
#GOGOSTART
101221202102101221202102,
101221202103003004001202,
101221202102101221202102,
101221202103003004002202,
102102112111201201221222,
102102111222101002001202,
300200101202301200101202,
311202311202312311400000, //75
#GOGOEND
#MEASURE 3/4
#SCROLL 1.66
300102002100100100,
300102002111101100,
#MEASURE 5/8
300102002100100,
300102002111100,
#SCROLL 2
401104001101200,
401104001202100,
401104001101200,
#MEASURE 3/4
401104002202101100, //83
#MEASURE 5/8
3323323323,
#MEASURE 3/4
300200101010202020101010202020101010,
332332332334,
313141314141,
343344333444,
#MEASURE 7/8
#SCROLL 3
333333333333300001202,
#MEASURE 4/4
130000000000,
0, //91
#END

COURSE:Hard
LEVEL:8
BALLOON:20
SCOREINIT:400,1580
SCOREDIFF:100
#START
3,
0,
3,
0,
100200101002002200100100,
100200101002002200100100,
100200101002001101101101,
1000100010104
#SCROLL 2
000, //8
#GOGOSTART
101100200200101100200200,
101100200103003004000000,
101100200200101100200200,
101100200103003004000000,
100101002200100101001100,
100100101100101002000000,
100200101002002200100100,
101100202200101100200000,
#GOGOEND
#MEASURE 1/4
#SCROLL 1
1, //17
#MEASURE 4/4
100200100202000100101101,
10201120,
100200100202000100101101,
10202210,
100101000101000101101101,
10221140,
100200100202000100101101,
1344, //25
#MEASURE 3/4
#SCROLL 1.33
100102002200100100,
100102002200100200,
100102002200100100,
100102002200100200,
#SCROLL 1.5
102102102102,
102101010101,
#SCROLL 1.66
333344,
600000000008000000
#SCROLL 1.5
000000100000200000, //33
100111100100000100,
100111100200000100,
100111100100000100,
100222200100000000,
100111100100000100,
100111100100200200,
100001000101100000,
101101100200000100, //41
100100202200200200,
101101101100000200,
500008000000200000500008000000200000,
101100200100000200,
500000000008000000200000200020200000,
101100101100000100,
100102001200100200,
600000000000000008000000200000200000,
100102001200100200,
101101101101003000, //51
#MEASURE 4/4
#SCROLL 1
101100101100101100200000,
101100101100101100102001,
200100101100101100100002,
000200101010100100200100,
102201102201102201101200,
202020202020101010100100,
12121212,
101200101200101200200000, //59
700000000000000000000000000000000000000000000008,
0,
111300222400,
222300111400,
#SCROLL 1.5
100200101002000200100100,
100200101002000200100100,
100100200200111100111100,
202020200000202020200000100000100000400
#SCROLL 2
000000000, //67
#GOGOSTART
101100200200101100200200,
101100200103003004000000,
101100200200101100200200,
101100200103003004000000,
100101002200100101001100,
100100101100101002000000,
100200101002002200100100,
101100202200101100200000, //75
#GOGOEND
#MEASURE 3/4
#SCROLL 1.5
300001000100100100,
300001000100100100,
#MEASURE 5/8
300001000100100,
300001000100100,
#SCROLL 1.66
400104000100100,
400104000200200,
400104000100100,
#MEASURE 3/4
400104000200200100, //83
#MEASURE 5/8
#SCROLL 2
3403403403,
#MEASURE 3/4
400101101101101100,
340340340340,
334344,
333330444440,
#MEASURE 7/8
600000000000000000000008000000000010100010,
#MEASURE 4/4
130000000000,
0, //91
#END

COURSE:Normal
LEVEL:7
BALLOON:13
SCOREINIT:510,2660
SCOREDIFF:140
#START
3,
0,
3,
0,
10101011,
10101011,
10101111,
1000000010004
#SCROLL 2
000, //8
#GOGOSTART
11201120,
100100200003003004000000,
11201120,
100100200003003004000000,
100001000000100001000000,
100100100000100002000000,
11101110,
11221120,
#GOGOEND
#MEASURE 1/4
#SCROLL 1
1, //17
#MEASURE 4/4
10101110,
1210,
10101110,
1210,
10101111,
1214,
10101110,
3344, //25
#MEASURE 3/4
#SCROLL 1.33
100001000100100000,
100001000100100000,
100001000100100000,
100001000100100000,
#SCROLL 1.5
1111,
100101010100,
#SCROLL 1.66
333333,
600000000008000000
#SCROLL 1.5
000000000000000000, //33
101101,
102200,
101101,
102200,
101101,
102220,
100001000100100000,
111100, //41
202201,
101101,
100101,
111100,
500000000008000000200000200000000000,
111101,
100001000200200000,
600000000000000008000000000000000000,
100001000200200000,
100100100100003000, //51
#MEASURE 4/4
#SCROLL 1
10101110,
11101110,
200000100000100100100002,
00101110,
12121210,
22221110,
1111,
11111120, //59
700000000000000000000000000000000000000000000008,
0,
1324,
2314,
#SCROLL 1.5
10101011,
10101011,
10101110,
2020200010004
#SCROLL 2
000, //67
#GOGOSTART
11201120,
100100200003003004000000,
11201120,
100100200003003004000000,
100001000000100001000000,
100100100000100002000000,
11101110,
11221120, //75
#GOGOEND
#MEASURE 3/4
#SCROLL 1.5
300001000100100000,
300001000100100000,
#MEASURE 5/8
300001000100100,
300001000100100,
#SCROLL 1.66
400004000100000,
400004000200200,
400004000100000,
#MEASURE 3/4
400004000200200200, //83
#MEASURE 5/8
#SCROLL 2
3003003003,
#MEASURE 3/4
011111,
3333,
333040,
333444,
#MEASURE 7/8
600000000000000000000008000000000000000000,
#MEASURE 4/4
130000000000,
0, //91
#END

COURSE:Easy
LEVEL:5
BALLOON:28,10
SCOREINIT:390,3920
SCOREDIFF:108
#START
3,
0,
3,
0,
11,
1110,
1011,
1000000010004
#SCROLL 2
000, //8
#GOGOSTART
11101110,
100100100003000003000000,
11101110,
100100100003000003000000,
11,
100000100000100001000000,
11101110,
11101020,
#GOGOEND
#MEASURE 1/4
#SCROLL 1
0, //17
#MEASURE 4/4
1011,
11,
1011,
11,
1011,
1014,
1011,
3344, //25
#MEASURE 3/4
#SCROLL 1.33
11,
11,
11,
11,
#SCROLL 1.5
7,
0,
#SCROLL 1.66
0,
000000000008000000
#SCROLL 1.5
000000000000000000, //33
101100,
22,
101100,
21,
101100,
22,
11,
101300, //41
101100,
101100,
12,
111100,
12,
111100,
11,
600000000000000008000000000000000000,
11,
600000000000000008000000000000000000, //51
#MEASURE 4/4
#SCROLL 1
1110,
1110,
200000100000100000000002,
0110,
11101110,
20201110,
1111,
11101110, //59
700000000000000000000000000000000000000000000008,
0,
1313,
1414,
#SCROLL 1.5
11,
1110,
1111,
1000100010004
#SCROLL 2
000, //67
#GOGOSTART
11101110,
100100100003000003000000,
11101110,
100100100003000003000000,
11,
100000100000100001000000,
11101110,
11101020, //75
#GOGOEND
#MEASURE 3/4
#SCROLL 1.5
31,
31,
#MEASURE 5/8
30010,
30010,
#SCROLL 1.66
440,
440,
440,
#MEASURE 3/4
400004000000000000, //83
#MEASURE 5/8
#SCROLL 2
3003003003,
#MEASURE 3/4
011,
3333,
334,
333333,
#MEASURE 7/8
600000000000000000000008000000000000000000,
#MEASURE 4/4
3,
0, //91
#END
