//TJADB Project
TITLE:Scars of FAUNA
TITLEJA:Scars of FAUNA
SUBTITLE:--Nekomata Master/jubeat
SUBTITLEJA:猫叉Master 「jubeat」より
BPM:165
WAVE:Scars of FAUNA.ogg
OFFSET:-4.672
DEMOSTART:79.937

COURSE:Oni
LEVEL:9
SCOREINIT:420
SCOREDIFF:105
#START
#MEASURE 3/4
#SCROLL 1.1
200200222000,
200200222020,
200200222022,
200000000200000000200000100100101010,//4
#GOGOSTART
102102101000,
102101221000,
102102101000,
102101221022,
102102101022,
102101221022,
102102101222,
120120101000,//12
#GOGOEND
300022202000,
200022202000,
200022202000,
200000000000200200200000200000000010,
100020002220,
200020202220,
200000222000,
222,
302220201022,
202010222010,
102220201022,
200200100111100000,
302102101000,
102102101000,
102102101000,
100200200200100200200200100000101010,//28
#GOGOSTART
100210201022,
120210201022,
100210201022,
120210201222,
100210201022,
120210201222,
102210221222,
100200000100200000100000101010100100,//36
#GOGOEND
,
301120102011,
102012101120,
102210221022,
112011201211,
101120102011,
102012101120,
102210221022,
101212101020,
301120112010,
202020200000202020200000100100200000,
102210211011,
101212101110,
301120112010,
202020200000202020200000100100200000,
102210211011,
100000100200100000101010100000000200,
100020102022,
102210,
100000200100200111,
100022201000,
100022102020,
100022104000,
100010001022,
100000100200100200100000101010100100,
102011201000,
100100200000100100100000101010100100,
102011201000,
112011101000,
302011201000,
112011101220,
100000200000200222,
222,//49
#GOGOSTART
300000200000100200000200100000202020,
120210201020,
122210221020,
100000202020100200100000100000200000,
302012021020,
122210201020,
122212221020,
120120101020,
300000200000100200000200100000202020,
120210201020,
122210221020,
100000202020100200100000100000200000,
302012021020,
122210201020,
122212221222,
100000200100000200100000100200202020,
100210201020,
120210201222,
100210201020,
100200000200100000200000101010100000,
300000200100000200100000101010200000,
300000200100000200100000101010200000,
300000200100000200100000101010100000,
100000100000200100000200100000101010,//93
#GOGOEND
110110101011,
110110101011,
110110201011,
110110201011,
110210201011,
110210201110,
122212221222,
100200000100200000100000101010100000,
300000000300000000300000300000202020,
200400404000,
#END

COURSE:Hard
LEVEL:7
SCOREINIT:420
SCOREDIFF:100
#START
#MEASURE 3/4
200200202000,
200200222000,
200200202000,
200200222000,//4
#GOGOSTART
101101101000,
101101101000,
101101101000,
101101102020,
101101101000,
101101101000,
101101101000,
101101101000,//12
#GOGOEND
302,
200022,
202,
202,
300022,
22,
200220,
222,
300022200022,
200020222000,
200022200022,
200020222000,
100100111000,
100100111000,
100100111000,
202022202220,//28
#GOGOSTART
100110111010,
100110111010,
100110111010,
100110111000,
300110111010,
100110111010,
343434,
110110101111,//36
#GOGOEND
,
100010201011,
101110201020,
100010201011,
101110202220,
100010201011,
101110201020,
100010201011,
112210,
121212,
222022202010,
121212,
101110201000,
321212,
222022202010,
121212,
101110100000,
000010002022,
202211,
000010002022,
202220,
000010002022,
202211,
100010001022,
200000200000200000500000000008000000,
102010201011,
121212,
102010201011,
121210,
102010201011,
121211,
100000000022,
222,//49
#GOGOSTART
101022201010,
101022201010,
101022201010,
100010222020,
101022201010,
101202,
101022,
111011101000,
101022201010,
101022201010,
101022201010,
100010222020,
101022201010,
101202,
112,
111022201000,
5,
000000000008000000000000100000200000,
101212,
101212,
101101101000,
101101101000,
101101101000,
111011101000,//93
#GOGOEND
110110111010,
110110111010,
110110111010,
110110112020,
110110111010,
110110111010,
110110111010,
110110111000,
300300303000,
400400404000,
,
,
,
#END

COURSE:Normal
LEVEL:5
BALLOON:6,6
#START
#MEASURE 3/4
200220,
200220,
200220,
200220,//4
#GOGOSTART
300110,
100110,
100110,
100120,
300110,
100110,
100110,
500000000000000000000008000000000000,//12
#GOGOEND
302,
200022,
202,
2,
300022,
22,
202,
222,
302,
200022,
102,
2,
500000000000000008000000200000000000,
500000000000000008000000200000000000,
500000000000000008000000200000000000,
708,//28
#GOGOSTART
100100101000,
100100101000,
100100101000,
100100102000,
100100101000,
100100101000,
333,
500000000000000000000000000000000008,//36
#GOGOEND
,
333,
022,
333,
002220,
333,
022,
334,
330,
122,
122,
122,
111,
122,
122,
122,
500000000000000000000008000000000000,
012,
201111,
012,
202220,
012,
201110,
500000000000000000000008000000000000,
222020,
012,
201111,
012,
202220,
012,
201110,
500000000000000000000008000000000000,
222,//49
#GOGOSTART
111020,
111020,
111020,
101120,
111020,
111020,
111020,
708,
111020,
111020,
111020,
101120,
111020,
111020,
111020,
222,
5,
000000000008000000000000200000200000,
111,
211,
201022,
111,
212,
500000000000000000000008000000000000,//93
#GOGOEND
100100101000,
100100101000,
100100101000,
100100102000,
100100101000,
100100101000,
100100101000,
100100102000,
300300303000,
400400404000,
,
,
,
#END

COURSE:Easy
LEVEL:4
#START
#MEASURE 3/4
2,
,
2,
,//4
#GOGOSTART
3,
3,
3,
4,
3,
3,
3,
4,//12
#GOGOEND
101,
1,
101,
1,
101,
1,
1,
1,
301,
1,
101,
1,
3,
3,
3,
500000000000000008000000000000000000,//28
#GOGOSTART
111,
011,
111,
011,
111,
011,
5,
000000000000000000000000000000000008,//36
#GOGOEND
,
333,
011,
333,
011,
333,
011,
333,
3,
110,
110,
220,
220,
110,
110,
220,
220,
101,
1,
101,
1,
101,
1,
110,
110,
111,
011,
111,
011,
111,
011,
2,
,//49
#GOGOSTART
333,
444,
111,
1,
333,
444,
111,
500000000000000008000000000000000000,
333,
444,
111,
1,
333,
444,
111,
2,
5,
000000000000000008000000000000000000,
111,
011,
112,
110,
112,
110,//93
#GOGOEND
333,
011,
333,
011,
333,
011,
333,
3,
100110,
300330,
,
,
,
#END
