//TJADB Project
TITLE:Taiko Session
TITLEJA:Taiko Session
SUBTITLE:--~Live Version~ / Jesahm
SUBTITLEJA:〜Live Version〜
BPM:140
WAVE:Taiko Session Live Version.ogg
OFFSET:-1.973
DEMOSTART:17.402 //Only
Donderful/Hard/Normal in
CS2: //CS2
Donderful = CS2 Hard = PS4 Oni //CS2 Normal = PS4 Hard //Shinuchi:
15470/10680/6160/4270/2360

COURSE:Edit
LEVEL:9
BALLOON:
SCOREINIT:830,2450
SCOREDIFF:233
#START
000000100111200111200000,
100011010201,
110111010210,
100011010200,
100010000000200000001000000010000000200200100000,
100001010200,
110111010200,
100011010200,
2022011121112202, //9
100201110201,
110201110211,
100201110201,
110210101201,
100201110201,
110211110211,
300000400020100110000030,
0002200000000000, //17
1110112002101120,
0110121101120101,
2011120120111111,
1112020101012002,
101120101110200020102010,
103001221122,
100010002000200010001000200000200000220000000000,
110011001100110010102020,
3002, //26
100101010210,
100000000000100000001000000010000000220000000000,
100000000000200000001000100010000000200100100200,
100100100100100200100100220000002000000010001000,
100101110200,
100000201020000010000011,
201201040404,
000000000000000000000000500000000000000008000000, //34
#GOGOSTART
2011201200111011,
2011101120120010,
2010120020111011,
2012111010112011,
11030204,
0011101110120040,
1021030040111011,
200000100100100200100000000000100000200020002000, //42
#GOGOEND
100000200110100000201010,
100000001000200000100000100100000200000100200100,
100000000200000010010000000000000100000002000000,
000101200000300020100010,
100000200222200020202000,
100100100100100100100100200000002000100040000000,
100111101000101010100010,
4,
0,
0, //52
#END

COURSE:Oni
LEVEL:7
BALLOON:
SCOREINIT:1360,4340
SCOREDIFF:455
#START
0,
100001010000,
100001010200,
100001010000,
120201010200,
100001010000,
100001010200,
100001010000,
2022011010002200, //9
100101020201,
000001010200,
101101100200,
1300,
100101020201,
000001010200,
101201100002,
0, //17
1000002001021000,
1000002001021010,
1000002001021000,
100000000000000000200000000100000200100000001000,
000101000102,
102001200122,
001020200000200200200000,
111111,
3, //26
100001010000,
100001010200,
100001010000,
100000000221,
100001010000,
100000001000000100000000,
101101010101,
000000000000500000080000, //34
#GOGOSTART
2022202220222022,
2022202220222111,
2022202210010010,
0020200020020020,
01010101,
0010001010010030,
02020202,
1, //42
#GOGOEND
121211200000,
121211200000,
121211200000,
121211200000,
100000000000500000080000,
100201002100,
201000100000,
3,
0,
0, //52
#END

COURSE:Hard
LEVEL:6
BALLOON:
SCOREINIT:1580,6400
SCOREDIFF:653
#START
0,
100001010000,
100001010200,
100001010000,
100001010200,
100001010000,
100001010200,
100001010000,
2000200022002000, //9
100101000100,
000001010200,
1112,
1300,
100101000100,
000001010200,
100100100002,
0, //17
02020202,
0020002000200220,
02020202,
02020222,
100100100102,
100100100102,
100100100102,
500000000000000000000000000000000008000000000000,
3, //26
100001010000,
100001010200,
100001010000,
1003,
100001010000,
100000001000000100000000,
100000010103,
000000000000500000080000, //34
#GOGOSTART
02020202,
1001001000000000,
0020002010010010,
0020200020020020,
01010101,
0010001010010030,
02020202,
0, //42
#GOGOEND
101000100000,
12,
101000100000,
12,
100000000000500000080000,
100001000100,
001000100000,
3,
0,
0, //52
#END

COURSE:Normal
LEVEL:4
BALLOON:12,9
SCOREINIT:1930,11600
SCOREDIFF:1450
#START
0,
1,
1002,
1,
1002,
1,
1002,
1,
2022, //9
1101,
0002,
1110,
1300,
1101,
0002,
100100100001,
0, //17
10020001,
01010000,
1022,
2007,
000000000000000000000000000000000000000000000008,
0011,
1120,
500000000000000000000000000000000008000000000000,
3, //26
1,
1002,
1,
3,
1,
1,
100000010103,
0, //34
#GOGOSTART
11,
1001001000000000,
1000000010010010,
0,
1111,
10101007,
0008,
0, //42
#GOGOEND
11,
1,
11,
12,
13,
100001000000,
010100,
3,
0,
0, //52
#END

COURSE:Easy
LEVEL:3
BALLOON:10,8,7
SCOREINIT:1750,17170
SCOREDIFF:1758
#START
0,
1,
1,
1,
0,
1,
1,
1,
22, //9
1101,
0,
1100,
1300,
1101,
0,
100100100001,
0, //17
10000001,
0,
1011,
1007,
000000000000000000000000000000000000000000000008,
0011,
12,
500000000000000000000000000008000000000000000000,
3, //26
1,
1,
1,
3,
1,
1,
500000000000000000000000000000000000000000080000,
0, //34
#GOGOSTART
11,
10010000,
17,
08,
11,
10101007,
0008,
0, //42
#GOGOEND
1,
1,
1,
1,
13,
1,
010000,
3,
0,
0, //52
#END
