//TJADB Project
TITLE:YOU're your HERO
TITLEJA:YOU're your HERO
SUBTITLE:--for all DONDERS
SUBTITLEJA:for all DONDERS
BPM:247.14
WAVE:YOUre your HERO.ogg
OFFSET:-0.759
DEMOSTART:56.916

COURSE:Oni
LEVEL:10
BALLOON:2,2,2,39
SCOREINIT:1120
SCOREDIFF:0
#START
12,
1000222020201000,
12112000,
10210102,
10102100,
100100200111,
10012102,
12020300,
1212,
10101103, //10
01211011,
2010100022202030,
01211011,
2010100022202010,
0011202010002010,
0011202010102020,
10210121,
0030003000222030, //18
01211011,
2010100022202030,
01211011,
2010100022202010,
0010222010102010,
0010222010102020,
1210202012102020,
100020001000000020000000500000000008000000000000, //26
10220210,
22021222,
10220210,
22021222,
10220210,
22021222,
10210210,
21021110, //34
10102210,
10121210,
10102210,
10101222,
10121011,
21101210,
10121011,
2010100011101010, //42
00030220,
1010001110101000,
10110220,
1010001110102020,
10120110,
12021222,
10120120,
12012222, //50
1000201110102010,
0010200011102000,
1000201022202000,
2220200022202010,
10210121,
0010201120101000,
202010202010202010100100,
4000000
#GOGOSTART
3, //58
0010201120102011,
1010200022202030,
0010201120102011,
1010200022202030,
0010201120102011,
1010200022102020,
30110101,
100000000000500000000000000008000000000000100100, //66
1010201120102011,
1010200022202011,
1010201120102011,
1010200022102020,
32212212,
21221122,
70802223,
000100200200100010001000,
30230303, //75
#GOGOEND
01222011,
22201223,
01222011,
22201221,
01221021,
01221122,
10210121,
0030003000222030, //83
01211011,
2010100022202030,
01211011,
2010100022202010,
0010222010002010,
0010222010102020,
1210202012102020,
121020202020, //91
3000201000201022,
21021122,
1000201000201022,
21021122,
1000201000201022,
21021122,
30230323,
0010202011111120, //99
1010201000112010,
01201122,
1010201022202000,
2220200022202010,
10210121,
0010201120101010,
221221221111,
4000000
#GOGOSTART
3, //107
0010211020202010,
0020111022202030,
0010211020202010,
0020111022202030,
0010211020202010,
0020111022102020,
3000201120102020,
100000200000500000000000000008000000000000100100, //115
1010211020202010,
2110201022202011,
1010211020202010,
2110201022112020,
32212212,
21221122,
70802223,
000000100000200000100100200000001000000010000000, //123
30230303,
0440,
30230303,
0440,
30230306,
0,
000000000008000000000000700000000000800000000000, //130
#GOGOEND
12,
1122,
#MEASURE 7/8
#BPMCHANGE 216.25
#SCROLL 1.14
1111222,
11112221111222,
#MEASURE 4/4
#BPMCHANGE 247.14
#SCROLL 1
7,
0,
0,
0,
8,
0,
0, //141
#END

COURSE:Hard
LEVEL:7
BALLOON:15,13,15,13,30
SCOREINIT:1840
SCOREDIFF:0
#START
12,
10222210,
1120,
10110100,
1120,
1120,
10012102,
10020300,
12,
10102203, //10
01211011,
21100003,
01211011,
21100001,
02221001,
02221010,
10210106,
000000000000000008000000000000000000000000300000, //18
01211011,
21100003,
01211011,
21100001,
02221001,
02221010,
7,
0008, //26
10020110,
02011022,
10020110,
02011022,
10020110,
02011022,
5,
000000000000000000000008000000000000000000000000, //34
1121,
10102210,
1121,
10102210,
10222010,
10102220,
10222010,
10101111, //42
00030220,
11011110,
10110220,
11011020,
10120110,
12021020,
10120120,
12012222, //50
10201121,
01201120,
10202220,
22202220,
10210121,
01201120,
600000000000000000000000000000000000000000000008,
0000000
#GOGOSTART
3, //58
01111010,
11102003,
01111010,
11102003,
01111010,
11102220,
7,
00008001, //66
11211010,
11102001,
11211010,
11102220,
30030030,
03003030,
30002226,
000000000000000000000000000008000000000000000000,
30230303, //75
#GOGOEND
01222010,
22201003,
01222010,
22201001,
00201001,
0210,
10010106,
000000000000000008000000000000000000000000300000, //83
01211011,
21100003,
01211011,
21100001,
02221001,
02221010,
7,
0008, //91
30010210,
01021110,
10010210,
01021110,
10010210,
01021110,
5,
000000000000000000000008000000000000000000000000, //99
10210121,
01201120,
10202220,
22202220,
10210121,
01221120,
600000000000000000000000000000000000000000000008,
0000000
#GOGOSTART
3, //107
01111021,
02102203,
01111021,
02102203,
01111021,
02102220,
7,
00008001, //115
11212021,
21202201,
11212021,
21202220,
30030030,
03003030,
30002226,
000000000000000000000000000008000000000000000000, //123
30230303,
0440,
30230303,
0440,
30230306,
0,
000000000000008000000000400000000000000000000000, //130
#GOGOEND
12,
1122,
#MEASURE 7/8
#BPMCHANGE 216.25
#SCROLL 1.14
1111222,
500000000000000000000000000000000008000000,
#MEASURE 4/4
#BPMCHANGE 247.14
#SCROLL 1
7,
0,
0,
0,
8,
0,
0, //141
#END

COURSE:Normal
LEVEL:6
BALLOON:10,8,10,8,24
SCOREINIT:2790
SCOREDIFF:0
#START
12,
1220,
1120,
10010100,
1120,
1120,
12,
10010300,
12,
10102003, //10
00111010,
11100003,
00111010,
11100001,
00201001,
0210,
10010106,
000000000000000008000000000000000000000000300000, //18
00111010,
11100003,
00111010,
11100001,
00201001,
0210,
7,
0008, //26
10020010,
02001000,
10020010,
02001000,
10020010,
02001000,
5,
000000000000000000000008000000000000000000000000, //34
1121,
0110,
1121,
0110,
1121,
0110,
1121,
0110, //42
00030020,
01001000,
10010020,
01001000,
10020010,
02001000,
10020010,
02001000, //50
1112,
00101110,
12,
22,
1112,
00101110,
600000000000000000000000000000000000000000000008,
0000000
#GOGOSTART
3, //58
0111,
11100003,
0111,
11100003,
0111,
11102020,
7,
00008003, //66
01101010,
22200003,
01101010,
22202020,
30030030,
03003000,
36,
000000000000000000000000000008000000000000000000,
30030303, //75
#GOGOEND
0221,
20200003,
0221,
20200001,
00002001,
02,
10010106,
000000000000000008000000000000000000000000300000, //83
00111010,
11100003,
00111010,
11100001,
00201001,
0210,
7,
0008, //91
30010020,
01001110,
10010020,
01001110,
10010020,
01001110,
5,
000000000000000000000008000000000000000000000000, //99
1112,
00101110,
12,
22,
1112,
00101110,
600000000000000000000000000000000000000000000008,
0000000
#GOGOSTART
3, //107
00101011,
02200003,
00101011,
02200003,
00101011,
02202020,
7,
00008003, //115
01101011,
22200003,
01101011,
22202020,
30030030,
03003000,
36,
000000000000000000000000000008000000000000000000, //123
30030303,
04,
30030303,
04,
30030306,
0,
000008000000000000000000400000000000000000000000, //130
#GOGOEND
12,
1122,
#MEASURE 7/8
#BPMCHANGE 216.25
#SCROLL 1.14
5,
000000000000000000000000000000000008000000,
#MEASURE 4/4
#BPMCHANGE 247.14
#SCROLL 1
7,
0,
0,
0,
8,
0,
0, //141
#END

COURSE:Easy
LEVEL:4
BALLOON:6,5,6,5,18
SCOREINIT:3870
SCOREDIFF:0
#START
11,
12,
3,
1,
1,
12,
3,
1,
5,
000000000000000008000000000000000000000000300000, //10
0110,
10100003,
0110,
10100001,
00101001,
0110,
5,
000000000000000000000008000000000000000000300000, //18
0110,
10100003,
0110,
10100001,
00101001,
0110,
7,
0008, //26
1002,
01,
1002,
01,
1002,
01,
5,
000000000000000000000008000000000000000000000000, //34
1011,
0110,
1011,
0110,
1011,
0110,
1110,
02, //42
00030010,
01001000,
10010010,
01001000,
10010010,
01001000,
10010010,
01001000, //50
1011,
0110,
12,
22,
1011,
0110,
600000000000000000000000000000000000000000000008,
0000000
#GOGOSTART
3, //58
0111,
10100001,
0111,
10100001,
0111,
1100,
7,
00008003, //66
0111,
20200001,
0111,
2200,
30030030,
03003000,
36,
000000000000000000000000000008000000000000000000,
30030303, //75
#GOGOEND
0220,
20000003,
0220,
20000001,
00101001,
0110,
5,
000000000000000008000000000000000000000000300000, //83
0110,
10100003,
0110,
10100001,
00101001,
0110,
7,
0008, //91
30010020,
01001000,
10010020,
01001000,
10010020,
01001000,
5,
000000000000000000000008000000000000000000000000, //99
1011,
0110,
12,
22,
1011,
0110,
600000000000000000000000000000000000000000000008,
0000000
#GOGOSTART
3, //107
00101001,
00200001,
00101001,
00200001,
00101001,
0200,
7,
00008003, //115
0111,
10200001,
0111,
1200,
30030030,
03003000,
36,
000000000000000000000000000008000000000000000000, //123
30030303,
04,
30030303,
04,
30030306,
0,
000008000000000000000000400000000000000000000000, //130
#GOGOEND
11,
1111,
#MEASURE 7/8
#BPMCHANGE 216.25
#SCROLL 1.14
5,
000000000000000000000000000000000008000000,
#MEASURE 4/4
#BPMCHANGE 247.14
#SCROLL 1
7,
0,
0,
0,
8,
0,
0, //141
#END
