//TJADB Project
TITLE:Que Sera Sera
TITLEJA:ケセラセラ
SUBTITLE:--
SUBTITLEJA:
BPM:115
WAVE:Que Sera Sera.ogg
OFFSET:-2.005
SONGVOL:100
SEVOL:100
DEMOSTART:68.715
SCOREMODE:2 //shinuchi:
11700/6590/3830/2750

COURSE:Oni
LEVEL:7
BALLOON:
SCOREINIT:840,2850
SCOREDIFF:250
#START
2000200020020020,
02022022,
2222,
20222020,
10201022,
10220220,
34340220,
2000200020201022,
20202121, //9
#GOGOSTART
1022102210221110,
1110200110201020,
1110201020002210,
1010201020102210,
11213443,
1110200110201020,
1110201020002210,
11211212,
1011101000102010, //18
#GOGOEND
12101120,
10211021,
1020100110102010,
1000201110002010,
1020100110102010,
1000201110002000,
1000200211102010,
11211000,
1002111000102010,
1010200010002011,
1010201000102011,
11210122,
30211121,
300000300000300000300000600000000008000000000000, //32
#GOGOSTART
1120112010211120,
1020102011102010,
1110200011102002,
1110201000102220,
1120112010211120,
1020102000111020,
1120112000102020,
102111
#GOGOEND
20, //40
100000000000500000000000000000000000000000000008,
00221022,
10200201,
12210022,
100000000000500000000000000000000008000000100000,
12210122,
12211121,
12210122,
12211121,
12210000,
0,
0,
0, //53
#END

COURSE:Hard
LEVEL:4
BALLOON:
SCOREINIT:830,4170
SCOREDIFF:275
#START
2000200020020020,
02002020,
22,
2220,
1212,
10220020,
34340220,
2220,
20202001, //9
#GOGOSTART
3333,
1010100110101010,
11211000,
10101212,
10104444,
1010100110101010,
11211000,
10101212,
10110121, //18
#GOGOEND
1112,
10211000,
1112,
10211000,
1112,
10211020,
1212,
1110,
10210120,
11102000,
11210020,
11210110,
30111111,
300000300000300000300000600000000008000000000000, //32
#GOGOSTART
1000100010011020,
12211210,
1010200010102001,
1010101000101110,
10101012,
11210110,
34340220,
102110
#GOGOEND
20, //40
100000000000500000000000000000000000000000000008,
0212,
10200201,
10220020,
100000000000500000000000000000000008000000100000,
10220020,
10211020,
10210120,
10211012,
11220000,
0,
0,
0, //53
#END

COURSE:Normal
LEVEL:3
BALLOON:9,9
SCOREINIT:1080,7910
SCOREDIFF:490
#START
22,
02,
22,
2220,
1011,
1100,
30330000,
22,
22, //9
#GOGOSTART
3333,
6,
000000000000000000000000000000000008000000000000,
10000101,
00004440,
6,
000000000000000000000000000000000008000000000000,
11,
70000008, //18
#GOGOEND
1110,
10011000,
1110,
10011000,
1110,
10011000,
1210,
1210,
10010000,
1110,
10010000,
10010020,
30333033,
600000000000000000000000000000000008000000000000, //32
#GOGOSTART
1110,
01011010,
1212,
70000008,
10101011,
10110010,
30330010,
100110
#GOGOEND
20, //40
100000000000500000000000000000000000000000000008,
01,
100000000000500000000000000000000008000000000000,
10010010,
100000000000500000000000000000000008000000000000,
10010010,
10001010,
10010010,
10001110,
10020220,
4,
0,
0, //53
#END

COURSE:Easy
LEVEL:2
BALLOON:6,6
SCOREINIT:1200,14160
SCOREDIFF:915
#START
22,
0,
22,
2,
11,
1,
30030000,
02,
02, //9
#GOGOSTART
30303000,
6,
000000000000000000000000000008000000000000000000,
10000001,
0033,
6,
000000000000000000000000000008000000000000000000,
11,
700000000000000000000000000000080000000000000000, //18
#GOGOEND
11,
1,
11,
1,
11,
1,
22,
2,
1,
11,
1,
1,
33,
600000000000000000000000000008000000000000000000, //32
#GOGOSTART
1110,
1011,
11,
700000000000000000000000000000080000000000000000,
1110,
10010000,
30030000,
101
#GOGOEND
0, //40
500000000000000000000000000000000000000000000008,
01,
1,
2200,
500000000000000000000000000008000000000000000000,
1001,
11,
1001,
11,
4,
0,
0,
0, //53
#END
