//TJADB Project
TITLE:EXRiXiS
TITLEJA:EXRiXiS
SUBTITLE:--Yomii
SUBTITLEJA:よみぃ
BPM:185
WAVE:EXRiXiS.ogg
OFFSET:-0.748
DEMOSTART:16.324

COURSE:Edit
LEVEL:10
BALLOON:12,30
SCOREINIT:980
SCOREDIFF:0
#START
2002002020000022,
1002002020000022,
1002002010020020,
1002102210110110, //4
3000222010201120,
3022102011102020,
3000202011201120,
3022102011212010,
3021201011210210,
3021201011210210,
2112112122122122,
7008, //12
1022122210210120,
1120122210210120,
1111221111221121,
2112112210021122,
1022122210210120,
1112102210210120,
100100100200100020002000100020002000100020002000,
1221221211112122, //20
1000111120120120,
2012012012111011,
2012112012102120,
200100100200100100200200500000000008000000100100,
2012012011012010,
200000100200000100200000100010001000200000200000,
100000200200100100200200500008000000100100100100,
2211112212121112, //28
#SCROLL 0.5
1000000020020020,
1220202012221222,
500000000000000008000000100000200000000200000000,
2002002022101020,
500000000000000008000000100200200000200000200000,
100020002000200020002000100000200000200200200200,
1022201022221020,
1220122010222020, //36
#SCROLL 1
1220102211201020,
1020222210202010,
500000000000000008000000100100200000100000200200,
1120102211201220,
3022102010201020,
3022102012221020,
3022101022101022,
1111221112221120, //44
100000000200000000200000000000200000000200000020,
2000002020020020,
2002002020002020,
2011202221104000,
1002102010001222,
1002102010021020,
1021221221121212,
100100200100100200100200100100100100101010101010,
2000002211222210,
0000000000102212, //54
#GOGOSTART
1012112210210122,
1012112210210122,
1012112211121122,
100200200100200200100100200000101010200100200000,
2012012221212112,
2012012122112112,
200000101010100100200100200000101010100100200100,
202020002000101010001000100200100100200100200000, //62
3021021021021111,
1201221020121122,
1021021021112121,
000030002000200030002000300000200100100100200200,
100000200100000100202020100100100200100100200200,
100000202020100000202020100000200100100200100200,
2111112121111121,
201020102010201020102010200000100200100200200200, //70
#GOGOEND
7,
0,
8,
0,
#BPMCHANGE 208.2
30
#BPMCHANGE 213.8
30
#BPMCHANGE 220.2
22
#BPMCHANGE 226.3
12,
#BPMCHANGE 232.4
30
#BPMCHANGE 238.5
30
#BPMCHANGE 244.4
22
#BPMCHANGE 250.4
12,
#BPMCHANGE 256.2
32
#BPMCHANGE 262.7
23
#BPMCHANGE 268.6
02
#BPMCHANGE 274.7
12,
#BPMCHANGE 280.7
30
#BPMCHANGE 286.5
30
#BPMCHANGE 293
22
#BPMCHANGE 298.4
22,
#BPMCHANGE 304.5
32
#BPMCHANGE 311
22
#BPMCHANGE 316.7
32
#BPMCHANGE 322.8
22,
#BPMCHANGE 329
32
#BPMCHANGE 334.7
22
#BPMCHANGE 341.1
32
#BPMCHANGE 347.6
22,
#BPMCHANGE 350
00220122,
#BARLINEOFF
12104000, //82
#BARLINEON
#BPMCHANGE 300
#GOGOSTART
3020201110202020,
1020201110202020,
1000201000102022,
12021122,
30112222,
1000201110201020,
32232232,
1000400011112222, //90
1000111020100020,
0010202011102020,
10112212,
0020101022201020,
1111111120201020,
1111111120201020,
1111201022221020,
1111222211221122, //98
#GOGOEND
00003222,
22021222,
22110122,
1110202010102020,
1120201020201020,
11220360,
0,
0,
0,
000000000000000000000000000000000000000000000008,
0,
0, //110
#END

COURSE:Oni
LEVEL:9
BALLOON:10,30
SCOREINIT:1300
SCOREDIFF:0
#START
2002002020000022,
2002002020000022,
2002002020020020,
2002002010010010, //4
30220202,
32021122,
30220202,
32021221,
3020201010212010,
3020201010212010,
2012012020120220,
7008, //12
1020102210210120,
1020102210210120,
1111201111201020,
2002102010001122,
1020102210210120,
1020102210210120,
100100100000200020002000100010001000200020002000,
1201201211102020, //20
1000101020120120,
2012012012002011,
2012012012002020,
200000100200000100200000500000000008000000100100,
2012012011012020,
200000100200000100200000100010001000200000200000,
1022112210001111,
2011112022221111, //28
1000000020020020,
1220202010221020,
500000000000000008000000100000200000000200000000,
2002002022101020,
500000000000000008000000100200200000200000200000,
100020002000200020002000100000000000200200200200,
1022201022201020,
1020102010222020, //36
1000202210202020,
1020222010202010,
500000000000000008000000100000200000100000200200,
1020102210201220,
30121212,
3000102010221020,
3000101020101022,
1010221010221120, //44
100000000200000000200000000000200000000200000020,
2000002020020020,
2002002020002020,
2000002220000000,
1002102010001222,
1002102010021020,
1001001001101010,
1011101011101111,
2000002211222210,
0000000000102222, //54
#GOGOSTART
1021012010010110,
1021012010010110,
1021012010111120,
1021021020102120,
2012012022221111,
2012012022221111,
2011112020111120,
200020002000100010001000200200100100200000000000, //62
3021021021021020,
1201221020111120,
1021021001112121,
000030002000200020002000300000200200100100200000,
1021021011201120,
1022102210210210,
2011112020111120,
4012104012104010, //70
#GOGOEND
7,
0,
8,
0,
#BPMCHANGE 208.2
3
#BPMCHANGE 213.8
3
#BPMCHANGE 220.2
2
#BPMCHANGE 226.3
2,
#BPMCHANGE 232.4
30
#BPMCHANGE 238.5
30
#BPMCHANGE 244.4
22
#BPMCHANGE 250.4
10,
#BPMCHANGE 256.2
30
#BPMCHANGE 262.7
03
#BPMCHANGE 268.6
02
#BPMCHANGE 274.7
20,
#BPMCHANGE 280.7
30
#BPMCHANGE 286.5
30
#BPMCHANGE 293
22
#BPMCHANGE 298.4
20,
#BPMCHANGE 304.5
30
#BPMCHANGE 311
22
#BPMCHANGE 316.7
30
#BPMCHANGE 322.8
22,
#BPMCHANGE 329
30
#BPMCHANGE 334.7
22
#BPMCHANGE 341.1
30
#BPMCHANGE 347.6
22,
#BPMCHANGE 350
0,
#BARLINEOFF
04, //82
#BARLINEON
#BPMCHANGE 300
#GOGOSTART
30120222,
10120222,
10210122,
12021122,
30112222,
10211212,
30230230,
00401122, //90
10112102,
01201122,
10112212,
02112210,
1110101020000000,
1110101020000000,
1110101022202020,
11221212, //98
#GOGOEND
03,
01,
1,
1,
10000022,
10120360,
0,
0,
0,
000000000000000000000000000000000000000000000008,
0,
0, //110
#END

COURSE:Hard
LEVEL:8
BALLOON:8,24,6
SCOREINIT:1860
SCOREDIFF:0
#START
2002002020000000,
2002002020000000,
2002002020020020,
2002002010010010, //4
30220202,
32020222,
30220202,
3020002010010010,
30210201,
30210201,
2002002020020020,
7008, //12
1000102010010010,
1000102010010010,
11211212,
2002002010000000,
1000102010010010,
1000102010010010,
1110101011101010,
2220222020202020, //20
1000101020020020,
1001001002002000,
2002002001001000,
200000000200000000200000500000000008000000000000,
2002002011012000,
200000000200000000200000100010001000100000000000,
100000000000100100100000500008000000100000100000,
2010102022201110, //28
1000000020020020,
10221010,
500000000000000008000000000000200000000200000000,
2002002020001000,
500000000000000008000000200000000000200000000000,
102202100200,
11212012,
12021222, //36
1000222020201000,
12221222,
500000000000000008000000100000200000200000200000,
1020202010202220,
30121212,
3000102010222020,
30112112,
1110201110201020, //44
1,
22,
20022000,
2000002220000000,
10121012,
10121012,
1001001001001000,
1010101011101110,
2000000020202220,
0001, //54
#GOGOSTART
1002102010002220,
1002102010002220,
1002002011102020,
1002002020002220,
2002002011102000,
2002002011102000,
2001102020011020,
200020002000200000000000100100100000200000000000, //62
3001001001001110,
0200201020201110,
1001001001001110,
000010001000100010001000100000000000100100100000,
2002002010102020,
3000300030010010,
2011102020111020,
2011102011102010, //70
#GOGOEND
7,
0,
8,
0,
#BPMCHANGE 208.2
3
#BPMCHANGE 213.8
3
#BPMCHANGE 220.2
2
#BPMCHANGE 226.3
0,
#BPMCHANGE 232.4
3
#BPMCHANGE 238.5
3
#BPMCHANGE 244.4
2
#BPMCHANGE 250.4
0,
#BPMCHANGE 256.2
30
#BPMCHANGE 262.7
03
#BPMCHANGE 268.6
00
#BPMCHANGE 274.7
20,
#BPMCHANGE 280.7
3
#BPMCHANGE 286.5
3
#BPMCHANGE 293
0
#BPMCHANGE 298.4
2,
#BPMCHANGE 304.5
3
#BPMCHANGE 311
0
#BPMCHANGE 316.7
3
#BPMCHANGE 322.8
0,
#BPMCHANGE 329
3
#BPMCHANGE 334.7
0
#BPMCHANGE 341.1
7
#BPMCHANGE 347.6
0,
#BPMCHANGE 350
08,
#BARLINEOFF
0, //82
#BARLINEON
#BPMCHANGE 300
#GOGOSTART
30220220,
10220220,
10220220,
11010220,
30102220,
10210210,
30030030,
00401120, //90
10112202,
00101120,
10112202,
00112020,
11112020,
11112020,
11102220,
12121212, //98
#GOGOEND
03,
02,
2,
2,
1,
10020060,
0,
0,
0,
000000000000000000000000000000000000000000000008,
0,
0, //110
#END

COURSE:Normal
LEVEL:7
BALLOON:6,18,5
SCOREINIT:3320
SCOREDIFF:0
#START
2,
2,
22,
2000000010010010, //4
32,
3022,
32,
3000000010010010,
3012,
3012,
1000100010010010,
7008, //12
1110,
1110,
1212,
1001001010000000,
1110,
1110,
10101110,
500000000000000000000000000000000008000000000000, //20
12,
10011020,
10011020,
1001001010000000,
10011020,
10011020,
10111000,
500000000000000000000000000000000008000000000000, //28
12,
1211,
12,
0121,
12,
1212,
1221,
11022020, //36
1221,
1012,
500000000000000008000000000000000000200000000000,
1211,
30111010,
30111010,
30111110,
11201120, //44
1,
22,
2,
22,
1111,
1111,
1001001001001000,
11101110,
2,
0, //54
#GOGOSTART
10121010,
10121010,
10201110,
10112020,
2002002020001000,
2002002020001000,
20122012,
2212, //62
3001001001001000,
0100101010002000,
1001001001002000,
000500000000000000000000000000000008000000000000,
2002002020002000,
3330,
20112011,
20101110, //70
#GOGOEND
7,
0,
8,
0,
#BPMCHANGE 208.2
3
#BPMCHANGE 213.8
3
#BPMCHANGE 220.2
0
#BPMCHANGE 226.3
0,
#BPMCHANGE 232.4
3
#BPMCHANGE 238.5
3
#BPMCHANGE 244.4
0
#BPMCHANGE 250.4
0,
#BPMCHANGE 256.2
30
#BPMCHANGE 262.7
03
#BPMCHANGE 268.6
00
#BPMCHANGE 274.7
00,
#BPMCHANGE 280.7
3
#BPMCHANGE 286.5
3
#BPMCHANGE 293
0
#BPMCHANGE 298.4
0,
#BPMCHANGE 304.5
3
#BPMCHANGE 311
0
#BPMCHANGE 316.7
3
#BPMCHANGE 322.8
0,
#BPMCHANGE 329
3
#BPMCHANGE 334.7
0
#BPMCHANGE 341.1
7
#BPMCHANGE 347.6
0,
#BPMCHANGE 350
08,
#BARLINEOFF
0, //82
#BARLINEON
#BPMCHANGE 300
#GOGOSTART
30010000,
10010000,
10010010,
1,
3110,
10010000,
30030030,
0400, //90
10002002,
0110,
10110202,
02,
1120,
1120,
1122,
10101110, //98
#GOGOEND
03,
0,
2,
0,
1,
1006,
0,
0,
0,
000000000000000000000000000000000000000000000008,
0,
0, //110
#END

COURSE:Easy
LEVEL:5
BALLOON:4,7,14,4
SCOREINIT:5640
SCOREDIFF:0
#START
2,
2,
22,
22, //4
3,
3,
3,
3,
32,
32,
31,
7008, //12
11,
11,
1111,
12,
11,
11,
1111,
500000000000000000000000000000000008000000000000, //20
11,
1011,
1011,
12,
1011,
1011,
11,
500000000000000000000000000000000008000000000000, //28
1,
11,
1,
12,
1,
11,
11,
1011, //36
0,
11,
500000000000000008000000000000000000000000000000,
11,
3,
3,
31,
1212,//44
1,
2,
2,
2,
1110,
1110,
500000000000000000000000000000000008000000000000,
7,
8,
0, //54
#GOGOSTART
1110,
1110,
1212,
1110,
2011,
2011,
2121,
2011, //62
3002,
1011,
3002,
000050000000000000000000000000000008000000000000,
1012,
3330,
11,
1111, //70
#GOGOEND
7,
0,
8,
0,
#BPMCHANGE 208.2
3
#BPMCHANGE 213.8
0
#BPMCHANGE 220.2
0
#BPMCHANGE 226.3
0,
#BPMCHANGE 232.4
3
#BPMCHANGE 238.5
0
#BPMCHANGE 244.4
0
#BPMCHANGE 250.4
0,
#BPMCHANGE 256.2
3
#BPMCHANGE 262.7
0
#BPMCHANGE 268.6
0
#BPMCHANGE 274.7
0,
#BPMCHANGE 280.7
3
#BPMCHANGE 286.5
0
#BPMCHANGE 293
0
#BPMCHANGE 298.4
0,
#BPMCHANGE 304.5
3
#BPMCHANGE 311
0
#BPMCHANGE 316.7
3
#BPMCHANGE 322.8
0,
#BPMCHANGE 329
3
#BPMCHANGE 334.7
0
#BPMCHANGE 341.1
7
#BPMCHANGE 347.6
0,
#BPMCHANGE 350
08,
#BARLINEOFF
0, //82
#BARLINEON
#BPMCHANGE 300
#GOGOSTART
3,
1,
11,
1,
3,
1,
30030030,
0400, //90
10002002,
01,
10002002,
02,
1110,
1110,
1111,
1111, //98
#GOGOEND
03,
0,
0,
0,
1,
1006,
0,
0,
0,
000000000000000000000000000000000000000000000008,
0,
0, //110
#END
