//TJADB Project
TITLE:RAGING FIRE
TITLEJA:RAGING FIRE
SUBTITLE:--Δ→Low
SUBTITLEJA:Δ→Low
BPM:300
WAVE:RAGING FIRE.ogg
OFFSET:-0.560
DEMOSTART:12.936 //SONG_ID:rgfire //shinuchi:
4610/2800/1850/1300/-

COURSE:Edit
LEVEL:10
BALLOON:
SCOREINIT:980
SCOREDIFF:0
#START
#MEASURE 8/4
300202202202202202202202,
202202202202202202200202,
100202202202202202202202,
202202202202202202200202,
102202202102202202102202,
202102202202102202102202,
102102102102102102122122,
2224, //8
#GOGOSTART
100201100100200100100201,
100201100100200100102202,
100201100100200100100201,
100201100100200100101202,
100201100100200100100201,
100201100100200100102202,
100201100100200100100201,
100201100100102102102102, //16
100000000000200020002000100000200000200020000000100200000000200000200000100000002000000020002000,
100000200200200000002000100000200000200020002000100000000000200000002000100000200200200000200000,
100000000000200020002000100000200000200020000000100200000000200000200000100000002000200020002000,
100200200200200000000000100000002000000020000000100200200200200000002000100000000000200000000000,
100000000000200020002000100000200000200020000000100200000000200000200000100000002000200020002000,
100000200200200000002000100000200000200020002000100000000000200000002000100000200200200000200000,
100000000000200020002000100000200000200200000000100200000000200000200000100000002000200020002000,
100200200200200000000000100000002000000020000000100200200200200000002000100200200200100100100100, //24
#GOGOEND
1040404040401122,
3040404040401130,
34433443,
300401100400302202100400,
102202100200101202100100,
102202100200101202100100,
111222111222122122122122,
111111333300, //32
300202100200111200111200,
100201100100200100300000,
300202100200111200111200,
100201100111200100101200,
300202100200111200111200,
100201100100200100300000,
300202100200111200111200,
100201100111200100101200, //40
300201100200100100100202,
100201100100300300300000,
300201100200100100100202,
100201100100300300301100,
300202100200111200111200,
100201100100200100300000,
300202100200111200111200,
100201100111200100400200, //48
300202202202300202202202,
300000000000200000002000200000002000200000002000300000000000200000030000200000002000300000000000,
300202202202300202202202,
300000000000200000002000200000002000200000002000300000000000200000030000200000002000300000000000,
300000000000200000010000200000002000100000002000300000000000200000010000200000002000100000002000,
300000000000200000010000200000002000100000002000300000000000200000010000200000002000100000002000,
102102102102122122122122,
2002002002004000, //56
#GOGOSTART
100000000000200020002000100000200000200020000000100200000000200000200000100000002000000020002000,
100000200200200000002000100000200000200020002000100000000000200000002000100000200200200000200000,
100000000000200020002000100000200000200020000000100200000000200000200000100000002000200020002000,
100200200200200000000000100000002000000020000000100200200200200000002000100000000000200000000000,
100000000000200020002000100000200000200020000000100200000000200000200000100000002000200020002000,
100000200200200000002000100000200000200020002000100000000000200000002000100000200200200000200000,
100000000000200020002000100000200000200200000000100200000000200000200000100000002000200020002000,
100200200200200000000000100000002000000020000000100200200200200000002000100200200200100100100100, //64
100000000000200020002000100000100000200020000000100100000200100100100000100000002000200000002000,
100200200200100000002000100000100000200200200200100000001000200000002000100000001000200020002000,
100000000000200010002000200000100000100020000000100200200200100000200000400000000000100020002000,
100200200200100000200000100000002000000020002000100100100000400000000000100100100000400000000000,
100000000000200020002000100000200000100200000000100200200200200000200000100100100100100000002000,
100200200200100000002000100000200000100200200100100000000000100000002000100000200000100200200200,
100000000000200020002000100000100000200200200200100200000000200000200000100020002000100000002000,
100100100100200000002000100100100100200000200000100100100100200000002000100100100100200200200200,
1
#GOGOEND
0,
0, //74
#END

COURSE:Oni
LEVEL:8
BALLOON:30,30
SCOREINIT:420,1420
SCOREDIFF:103
#START
#MEASURE 8/4
#SCROLL 0.5
7,
0008,
7,
0008,
1022201022201022,
2010222010221022,
1010101012121212,
0004, //8
#GOGOSTART
1021101022101020,
1021101020101120,
1021101022101020,
1021101020101122,
1021101022101020,
1021101020101120,
1021101022101020,
1021101022101010, //16
3022101020101120,
1022111020101222,
1022101020101120,
2220112012221010,
1022101020101120,
1022111020101222,
1022101020101120,
1120112012202211, //24
#GOGOEND
1020202020201122,
1020202020201120,
12211221,
14141414,
1222102012201010,
1222102012201010,
1222102012201122,
111111111300, //32
3022102011201120,
1022201020103000,
3022102011201120,
1022201020101120,
3022102011201120,
1022201020103000,
3022102011201120,
1022201020101120, //40
3022102210101022,
100001100100300300300000,
3022102210101022,
100001100100300300300300,
3022102011201120,
1022201020103000,
3022102011201120,
1022201020104000, //48
3022222030222220,
3022222030030030,
3022222030222220,
3022222030030030,
3021201030212010,
3021201030212010,
1012101211221122,
0004, //56
#GOGOSTART
3022101020101120,
1022111020101222,
1022101020101120,
2220112012221010,
1022101020101120,
1022111020101222,
1022101020101120,
1120112012202211, //64
1022112011201120,
1122102010202110,
1022201022104010,
2211101010401040,
1021212010212120,
1021212121212120,
3022101030221010,
1122112212121010,
3
#GOGOEND
0,
0, //74
#END

COURSE:Hard
LEVEL:7
BALLOON:24,24
SCOREINIT:490,2010
SCOREDIFF:125
#START
#MEASURE 8/4
#SCROLL 0.5
7,
0008,
7,
0008,
12212212,
21221212,
1010101011101110,
0004, //8
#GOGOSTART
1011101020001020,
1011101020001020,
1011101020001020,
1011101020001110,
1011101020001020,
1011101020001020,
1011101020001020,
1011101022202000, //16
1000101020101110,
1000101020102220,
2000101020101110,
1000101011101000,
1000101020101110,
1000101020102220,
2000101020101110,
1000101011101000, //24
#GOGOEND
12222210,
12222211,
12211221,
12121212,
1110101011101000,
1110101011101000,
1110101011101110,
101101101100, //32
30121212,
12012030,
10121212,
12012012,
10121212,
12012030,
10121212,
12012012, //40
10101112,
10113330,
10101112,
10113330,
10121212,
12012030,
10121212,
12012040, //48
30223022,
3000202030030030,
30223022,
3000202030030030,
3001001030010010,
3001001030010010,
3010101011101110,
0004, //56
#GOGOSTART
1000101020101110,
1000101020102220,
2000101020101110,
1000101011101000,
1000101020101110,
1000101020102220,
2000101020101110,
1000101011101000, //64
1000111010201020,
1011101010102000,
1022201010004000,
1011101010201020,
12221222,
12222222,
30113011,
1110111011111010,
3
#GOGOEND
0,
0, //74
#END

COURSE:Normal
LEVEL:6
BALLOON:16,16
SCOREINIT:560,3200
SCOREDIFF:158
#START
#MEASURE 8/4
#SCROLL 0.5
7,
0008,
7,
0008,
10010010,
01001010,
10101111,
0004, //8
#GOGOSTART
10112010,
10112010,
10112010,
10112011,
10112010,
10112010,
10112010,
10112020, //16
10102011,
10102022,
20102011,
10101110,
10102011,
10102022,
20102011,
10101110, //24
#GOGOEND
1001,
10000011,
10011001,
1111,
11101010,
11101010,
11101110,
500000000000000000000000000000000000000000000008000000000000000000000000300000000000000000000000, //32
10121010,
12012030,
10121010,
12012012,
10121010,
12012030,
10121010,
12012012, //40
10101110,
10103330,
10101110,
10103330,
10121010,
12012030,
10121010,
12012040, //48
33,
3000000030030030,
33,
3000000030030030,
30033003,
30033003,
30101111,
0004, //56
#GOGOSTART
10102011,
10102022,
20102011,
10101110,
10102011,
10102022,
20102011,
10101110, //64
10111010,
10112020,
10111040,
10101110,
1212,
10222020,
3131,
11101040,
3
#GOGOEND
0,
0, //74
#END

COURSE:Easy
LEVEL:4
BALLOON:13,13
SCOREINIT:510,5330
SCOREDIFF:170
#START
#MEASURE 8/4
#SCROLL 0.5
7,
0008,
7,
0008,
1001,
01,
100000000000000000000000100000000000000000000000500000000000000000000000000000000000000008000000,
0, //8
#GOGOSTART
1120,
12,
1120,
12,
1120,
12,
1120,
1110, //16
32,
1122,
12,
1122,
32,
1122,
12,
1122, //24
#GOGOEND
1,
1,
11,
1111,
11,
11,
1111,
500000000000000000000000000000000000000000000000000000000000000000000008000000000000000000000000, //32
1212,
1013,
1212,
1011,
1212,
1013,
1212,
1011, //40
1011,
13,
1011,
13,
1212,
1013,
1212,
1014, //48
33,
33,
33,
33,
33,
33,
3111,
0, //56
#GOGOSTART
12,
1122,
12,
1122,
12,
1122,
12,
1122, //64
1122,
1120,
1114,
1110,
1212,
1222,
33,
1114,
3
#GOGOEND
0,
0, //74
#END
