//TJADB Project
TITLE:Tetoris
TITLEJA:テトリス
SUBTITLE:--Hiiragi Magnetite feat. Kasane Teto
SUBTITLEJA:柊マグネタイト feat. 重音テト
BPM:170
WAVE:Tetoris.ogg
OFFSET:-1.831
DEMOSTART:37.123

COURSE:Oni
LEVEL:9
BALLOON:2
SCOREINIT:1090
SCOREDIFF:0
#START
1020201010221020,
1020201010221020,
1020201010221020,
10221210,
1020201010221020,
1020201010221020,
1020201010221020,
10221210, //8
3020201210221020,
1020201210221020,
1020201210221020,
1000202210201000,
1020201210221020,
1020201210221020,
1020201210221020,
14443434, //16
1022201010202010,
1020102210221010,
1022201010202010,
1020102210221022,
500000000008000000200200100000200000200000200000,
1022102010102020,
500000000008000000200000200000100000200000200000,
1001001010201020,
1001001010202222,
10221022,
1110, //27
#GOGOSTART
3011202210112020,
1011201020221020,
1011202210112020,
3000300030112020,
1012201020012020,
100000200200100000100000200000202020100000200000,
1011202211102020,
3000300030201122, //35
1011202210112020,
1011201020221020,
1011202210112020,
3000300030112020,
1012201020012020,
100000200200100000100000200000202020100000200000,
1011202211201020,
3330,
#GOGOEND
500000000000000000000000000000000008000000000000, //44
1020202210222020,
1020202210222020,
1222201222201222,
24443434,
1020202210222020,
1020202210222020,
1222201222201222,
20201078, //52
1022201010222010,
1122102210221010,
1022201010202010,
1020102210221022,
500000000008000000200200100000200000200000200000,
1022102010102020,
500000000008000000200000200000100000200000200000,
1001001010201020,
1001001010202222,
10221022,
1110, //63
#GOGOSTART
3011202210112020,
1011201020221020,
1011202210112020,
3000300030112020,
1012201020012020,
100000200200100000100000200000202020100000200000,
1011202211201020,
3000300030201122, //71
1011202210112020,
1011201020221020,
1011202210112020,
3000300030112020,
1012201020012020,
100000200200100000100000200000202020100000200000,
1011202211201020,
3000300030112212, //79
#MEASURE 2/4
10112022, //80
#BRANCHSTART p,-2,-1
#N
#BARLINEOFF
11112022,
#BARLINEON
#MEASURE 4/4
1211202212221010,
1122112211112020,
3020302030112020,
1012221020012020,
100000100100200000100000200000102020100000200000,
1011221122112020,
3020302030201122, //n88
1011202211112022,
1211202212221010,
1022112211112020,
3020302030112020,
1012221020012020,
100000100100200000100000200000102020100000200000,
1011221122221020,
3232
#GOGOEND
3000, //n96
#GOGOSTART
1012221020012020,
100000100100200000100000200000102020100000200000,
1111221122221020,
32323000,
#GOGOEND
0, //n101
#E
#BARLINEOFF
11112022,
#BARLINEON
#MEASURE 4/4
1211202212221010,
1122112211112020,
3020302030112020,
1012221020012020,
100000100100200000100000200000102020100000200000,
1011221122112020,
3020302030201122, //e88
1011202211112022,
1211202212221010,
1022112211112020,
3020302030112020,
1012221020012020,
100000100100200000100000200000102020100000200000,
1011221122221020,
3232
#GOGOEND
3000, //e96
#GOGOSTART
1012221020012020,
100000100100200000100000200000102020100000200000,
1111221122221020,
32323000,
#GOGOEND
0, //e101
#M
#BARLINEOFF
11112022,
#BARLINEON
#MEASURE 4/4
1211202212221010,
1122112211112020,
3020302030112020,
1012221020012020,
100000100100200000100000200000102020100000200000,
1011221122112020,
3020302030201122, //m88
1011202211112022,
1211202212221010,
1022112211112020,
3020302030112020,
1012221020012020,
100000100100200000100000200000102020100000200000,
1011221122221020,
3232
#GOGOEND
3000, //m96
#GOGOSTART
1012221020012020,
100000100100200000100000200000102020100000200000,
1111221122221020,
32323000,
#GOGOEND
0, //m101
#BRANCHEND
#END

COURSE:Hard
LEVEL:5
BALLOON:
SCOREINIT:1810
SCOREDIFF:0
#START
12201010,
12201010,
12201010,
20222010,
12201010,
12201010,
12201010,
20221010, //8
32221010,
12221010,
12221011,
20121210,
12221010,
12221010,
12221010,
12221212, //16
10121010,
12121210,
10121010,
12121212,
500000000008000000200000200000000000200000200000,
10121010,
500000000008000000200000200000000000200000200000,
1001001010201020,
1001001010202000,
10221022,
1110, //27
#GOGOSTART
30121022,
10112022,
10112020,
30303022,
11012022,
10112022,
10112020,
30303011, //35
10121012,
10112022,
10112020,
30303022,
11012022,
10112022,
10112020,
3330,
#GOGOEND
500000000000000000000000000000000008000000000000, //44
10221020,
10221020,
12212212,
21221212,
10221020,
10221020,
12212212,
2210, //52
10121010,
12121210,
10121010,
12121212,
500000000008000000200000200000000000200000200000,
10121010,
500000000008000000200000200000000000200000200000,
1001001010201020,
1001001010202000,
10221022,
1110, //63
#GOGOSTART
30121022,
10112022,
10112020,
30303022,
11012022,
10112022,
10112020,
30303011, //71
10121012,
10112022,
10112020,
30303022,
11012022,
10112022,
10112020,
3330, //79
#MEASURE 2/4
3012,
#BARLINEOFF
1112,
#BARLINEON
#MEASURE 4/4
10112122,
1000101020222000,
30303022,
11012022,
1000102010111020,
10112120,
3000300030001110, //88
10121112,
10112122,
1000101020222000,
30303022,
11012022,
1000102010111020,
10112120,
33
#GOGOEND
30, //96
#GOGOSTART
11012022,
1000102010111020,
10112120,
3330,
#GOGOEND
0, //101
#END

COURSE:Normal
LEVEL:5
BALLOON:
SCOREINIT:2460
SCOREDIFF:0
#START
1011,
1011,
1011,
22,
1011,
1011,
1011,
22, //8
30111010,
10111010,
10111010,
2011,
10111010,
10111010,
10111010,
1222, //16
10222010,
1111,
10222010,
1111,
500000000008000000000000200000000000200000000000,
1111,
500000000008000000000000200000000000200000000000,
10011010,
10011020,
11,
1110, //27
#GOGOSTART
30111010,
10222020,
10112020,
3330,
11022022,
10111010,
10112020,
3330, //35
10111010,
10222020,
10112020,
3330,
11022022,
10111010,
10112020,
3330,
#GOGOEND
500000000000000000000000000000000008000000000000, //44
12,
12,
10010010,
1222,
12,
12,
10010010,
11, //52
10222010,
1111,
10222010,
1111,
500000000008000000000000200000000000200000000000,
1111,
500000000008000000000000200000000000200000000000,
10011010,
10011020,
11,
1110, //63
#GOGOSTART
30111010,
10222020,
10112020,
3330,
11022022,
10111010,
10112020,
3330, //71
10111010,
10222020,
10112020,
3330,
11022022,
10111010,
10112020,
3330, //79
#MEASURE 2/4
1011,
#BARLINEOFF
1011,
#BARLINEON
#MEASURE 4/4
10222022,
10112020,
3332,
11022022,
10111022,
10112020,
3330, //88
10111011,
10222022,
10112020,
3332,
11022022,
10111022,
10112020,
33
#GOGOEND
30, //96
#GOGOSTART
11022022,
10111020,
10112020,
3330,
#GOGOEND
0, //101
#END

COURSE:Easy
LEVEL:3
BALLOON:10,10
SCOREINIT:4550
SCOREDIFF:0
#START
1,
1,
1,
2,
1,
1,
1,
22, //8
31,
11,
11,
21,
11,
11,
11,
12, //16
11,
1111,
11,
1111,
500000000000000008000000000000000000000000000000,
11,
500000000000000008000000000000000000000000000000,
7,
00000800,
11,
1, //27
#GOGOSTART
3011,
1022,
21,
3330,
1022,
2011,
11,
3330, //35
1011,
1022,
21,
3330,
1022,
2011,
11,
3330,
#GOGOEND
500000000000000000000000000008000000000000000000, //44
1,
1,
1,
12,
1,
1,
1,
11, //52
11,
1111,
11,
1111,
500000000000000008000000000000000000000000000000,
11,
500000000000000008000000000000000000000000000000,
7,
00000800,
11,
1, //63
#GOGOSTART
3011,
1022,
21,
3330,
1022,
2011,
11,
3330, //71
1011,
1022,
21,
3330,
1022,
2011,
11,
3330, //79
#MEASURE 2/4
31,
#BARLINEOFF
11,
#BARLINEON
#MEASURE 4/4
1022,
2011,
3330,
1022,
2011,
1011,
3330, //88
1111,
1022,
2011,
3330,
1022,
2011,
1011,
33
#GOGOEND
30, //96
#GOGOSTART
1022,
2011,
1011,
3330,
#GOGOEND
0, //101
#END
