//TJADB Project
TITLE:siren's eye
TITLEJA:siren's eye
SUBTITLE:--katagiri + Frums
SUBTITLEJA:かたぎり + Frums
BPM:270
WAVE:sirens eye.ogg
OFFSET:-1.073
DEMOSTART:72.187

COURSE:Oni
LEVEL:10
BALLOON:
SCOREINIT:1000
SCOREDIFF:0
#START
#MEASURE 10/4
#SCROLL 0.8
2,
#BARLINEOFF
2,
#BARLINEON
2000000000000000000000001000000000001111,
#BARLINEOFF
20000100000000010100,
#BARLINEON
3000000000000000000000000000000022202000, //5
3000001000002000001000001010001000001001,
#BARLINEOFF
01001021210100210210,
#BARLINEON
1000001020001000201000002010001000001001,
#BARLINEOFF
01002001012120210120, //9
#BARLINEON
1000001000001000001020001020001000002001,
#BARLINEOFF
02001021020100210210,
#BARLINEON
1000001000001000001000002010001020021021,
#BARLINEOFF
01001001010100000000, //13
#BARLINEON
100000000000000000100000200010001000100000100000200000100000100100100000200000100000000000100000200000000000100000200100,
#BARLINEOFF
0010200010112010001120100010201000211010,
#BARLINEON
1000001011202000101110202010001110102001,
#BARLINEOFF
0020111020001110201010222000102220111010, //17
#BARLINEON
1000001022201020201220201010221020201001,
#BARLINEOFF
2210202210202012201020102220101220101220,
#BARLINEON
1000001220201020221020201012201020201221,
#BARLINEOFF
0010202210002110201020102022101020121022,
#BARLINEON
00000000002222214000, //22
1111001020000020000010001110102010201010,
#BARLINEOFF
200000000000100010001000200200200000200000000000100010000000200000100000100000200200200000100000000000000000100000000000,
#BARLINEON
100100100100000000100000200000200000000000200100100000200000100020002000200020002000200020002000100000200200200000100000,
#BARLINEOFF
200000000000100000100100200000100000200200200000200000100000200200000000100000000100200000100100100000200020002000200000, //26
#BARLINEON
1111001020000020001020202120202010002010,
#BARLINEOFF
200020002000100000000000200000200200100010001000200000000200100000200000100000000200200000100000100000200200100000200000,
#BARLINEON
100100100100200000100000200000100000100000200000100000200100200000100000200200200000100200100000100000200000200000001000,
#BARLINEOFF
200000000000100000200200100000200000100000000000200000100000000000200000100000200200200000100000200000200020002000200000,
#BARLINEON
3,
#BARLINEOFF
0, //32
#BARLINEON
#BPMCHANGE 135
1001000000100000000010010000003000200200,
100000000000000000100000200000200200200000200000200000200000100000000000000000100000000000000000100000000000200020002000100000000000000000100000000000000000200000200000200000000000100000000000100000000000000000200000000000000000200000000000,
100000000000000000100000200200200000200000100100200020002000100000000000000000100200200200000000200000100000000200000000100000000000200000100000200000200000200020002000100000200000100000000000200200200200200000100000002000000200000200002000,
#MEASURE 9/4
101010101030000000000000000400000000,
#MEASURE 12/4
#BPMCHANGE 270
#SCROLL 1.5
600000000000000000000000000000000000000000000000000000000000000000000000000000000000000000000000000000000000000008000000400000000000000000000000, //37
#MEASURE 10/4
#SCROLL 1
#GOGOSTART
1111111111111111100022102000100012202010,
#BARLINEOFF
2222222222222222201020021020011020021020,
#BARLINEON
1111111111200200202020202020221022101000,
#BARLINEOFF
2222222220002021001010200120102000221020, //41
#BARLINEON
1111111111111111200010200011200012201010,
#BARLINEOFF
2222222222222222201020021020011020021020,
#BARLINEON
1111111111200200202020202020221022101000,
#BARLINEOFF
2222222220002012002020200120102010221020, //45
#BARLINEON
100100100100100010001000100010001000200001000010000200002000020000200002000010000100001000010000200000100000100000100000,
#BARLINEOFF
200200200200200200200200200200200200200001000020000100001000010000200001000020000100001000010000200000200200100000200000,
#BARLINEON
100100100100100010001000100010001000200002000020000200001000010000100001000020000200002000020000100000200000200000100000,
#BARLINEOFF
200200200200200020002000200020002000100001000020000200002000020000100001000020000200002000020000100000200100100000100000, //49
#BARLINEON
#MEASURE 12/4
#BPMCHANGE 324
#SCROLL 0.83
200011102000100020112000201011102010100020112000,
#BARLINEOFF
200011102010101020112000201011102010101020112000,
#BARLINEON
201011102010101020112010201011102011101020112010,
#BARLINEOFF
#MEASURE 10/4
#BPMCHANGE 270
#SCROLL 1
2011112011102011201020111120111021112111, //53
#GOGOEND
#BARLINEON
2,
#BARLINEOFF
2,
#BARLINEON
2,
#MEASURE 4/4
#BPMCHANGE 108
#SCROLL 2.5
#GOGOSTART
111111111111111111111111111111111111111111111111,
#GOGOEND
#BPMCHANGE 54
#SCROLL 5
0, //58
#END

COURSE:Hard
LEVEL:8
BALLOON:26
SCOREINIT:2140
SCOREDIFF:0
#START
#MEASURE 10/4
#SCROLL 0.8
2,
#BARLINEOFF
2,
#BARLINEON
20010,
#BARLINEOFF
20000100000000010100,
#BARLINEON
30000000000000002220, //5
30010020010011010020,
#BARLINEOFF
00001010100100200200,
#BARLINEON
11220,
#BARLINEOFF
00002002001010200020, //9
#BARLINEON
10000000001101000022,
#BARLINEOFF
02000011010000220200,
#BARLINEON
0000000000000000000000001000000010010020,
#BARLINEOFF
0, //13
#BARLINEON
10012010200020001021,
#BARLINEOFF
00101020011000200200,
#BARLINEON
10012010012020001010,
#BARLINEOFF
02002001201020112000, //17
#BARLINEON
10002201022010220100,
#BARLINEOFF
10010202010110201110,
#BARLINEON
10002220202022207000,
#BARLINEOFF
0,
#BARLINEON
80000000002222204000, //22
30002002001011101010,
#BARLINEOFF
00102020102011010010,
#BARLINEON
30002202001022221000,
#BARLINEOFF
10202020102000200200, //26
#BARLINEON
30002002001022221000,
#BARLINEOFF
10202010222010002220,
#BARLINEON
30202001002022221000,
#BARLINEOFF
10202010010020020000,
#BARLINEON
3,
#BARLINEOFF
0, //32
#BARLINEON
#BPMCHANGE 135
1001000000200000000010010000003000200200,
1001000000200200000010010000002020020020,
1001000000200200020010000100002000020000,
#MEASURE 9/4
101010101030000000000000000400000000,
#MEASURE 12/4
#BPMCHANGE 270
#SCROLL 1.5
600000000000000000000000000000000000000000000000000000000000000000000000000000000000000000000000000000000000000008000000400000000000000000000000, //37
#MEASURE 10/4
#SCROLL 1
#GOGOSTART
11111111102120101200,
#BARLINEOFF
22222222202012012010,
#BARLINEON
1010101010200200200020002020200020001000,
#BARLINEOFF
22222010110101202200, //41
#BARLINEON
11111111101201201200,
#BARLINEOFF
22222222202012012010,
#BARLINEON
1010101010200200200020202000200020001000,
#BARLINEOFF
22222011022202121200, //45
#BARLINEON
100000100000100000100000100000100000100000000020000000002000000000200002000020000000002000000000200000000000100000000000,
#BARLINEOFF
200000200000200000200000200000200000200000000010000000001000000000100001000010000000001000000000100000000000200000000000,
#BARLINEON
100000100000100000100000100000100000100000000020000000002000000000200002000020000000002000000000200000000000100000000000,
#BARLINEOFF
200000200000200000200000200000200000200000000010000000001000000000100001000010000000001000000000100000100000100000100000, //49
#BARLINEON
#MEASURE 12/4
#BPMCHANGE 324
#SCROLL 0.83
200020102021200020102022,
#BARLINEOFF
200020102021200020102022,
#BARLINEON
201020102021201020102022,
#BARLINEOFF
#MEASURE 10/4
#BPMCHANGE 270
#SCROLL 1
20120120212012012121, //53
#GOGOEND
#BARLINEON
2,
#BARLINEOFF
2,
#BARLINEON
2,
#MEASURE 4/4
#BPMCHANGE 108
#SCROLL 2.5
#GOGOSTART
500000000000000000000008,
#GOGOEND
#BPMCHANGE 54
#SCROLL 5
0, //58
#END

COURSE:Normal
LEVEL:7
BALLOON:16
SCOREINIT:3400
SCOREDIFF:0
#START
#MEASURE 10/4
#SCROLL 0.8
2,
#BARLINEOFF
2,
#BARLINEON
20010,
#BARLINEOFF
20000100000000010100,
#BARLINEON
30002, //5
30010010010010010020,
#BARLINEOFF
00001010100100000000,
#BARLINEON
11220,
#BARLINEOFF
00002002002020200020, //9
#BARLINEON
00000000001001000020,
#BARLINEOFF
02000010010000200200,
#BARLINEON
00000000000010001002,
#BARLINEOFF
0, //13
#BARLINEON
10002000200020001001,
#BARLINEOFF
0102010000,
#BARLINEON
1011022001,
#BARLINEOFF
02002000200020002000, //17
#BARLINEON
10002000020000200000,
#BARLINEOFF
10000200000010001000,
#BARLINEON
1022222070,
#BARLINEOFF
0,
#BARLINEON
80004, //22
30002002000010101000,
#BARLINEOFF
0222221000,
#BARLINEON
30002002000000001000,
#BARLINEOFF
00202020202000200200, //26
#BARLINEON
30002002000020201000,
#BARLINEOFF
0222221020,
#BARLINEON
30202002000000001000,
#BARLINEOFF
00202020020020020000,
#BARLINEON
3,
#BARLINEOFF
0, //32
#BARLINEON
#BPMCHANGE 135
1213,
1000000000200000000010000000002020020000,
1000000000200200000010000100002000020000,
#MEASURE 9/4
100000000030000000000000000400000000,
#MEASURE 12/4
#BPMCHANGE 270
#SCROLL 1.5
600000000000000000000000000000000000000000000000000000000000000000000000000000000000000000000000000000000000000008000000000000000000000000000000, //37
#MEASURE 10/4
#SCROLL 1
#GOGOSTART
11101010100200100200,
#BARLINEOFF
22202020200002002000,
#BARLINEON
11101000202020202000,
#BARLINEOFF
22202000100200200200, //41
#BARLINEON
11101010100200100100,
#BARLINEOFF
22202020200002002000,
#BARLINEON
11101000202020202000,
#BARLINEOFF
22202001020200020200, //45
#BARLINEON
100100100000100000100000000020000200002000020000200000000000,
#BARLINEOFF
200200200000200000200000000010000100001000010000100000000000,
#BARLINEON
100100100000100000100000000020000200002000020000200000000000,
#BARLINEOFF
200200200000200000200000000010000100001000010000100000000000, //49
#BARLINEON
#MEASURE 12/4
#BPMCHANGE 324
#SCROLL 0.83
201111201110,
#BARLINEOFF
201111201110,
#BARLINEON
201111201110,
#BARLINEOFF
#MEASURE 10/4
#BPMCHANGE 270
#SCROLL 1
20010010102001001110, //53
#GOGOEND
#BARLINEON
2,
#BARLINEOFF
2,
#BARLINEON
2,
#MEASURE 4/4
#BPMCHANGE 108
#SCROLL 2.5
#GOGOSTART
500000000000000000000008,
#GOGOEND
#BPMCHANGE 54
#SCROLL 5
0, //58
#END

COURSE:Easy
LEVEL:5
BALLOON:14
SCOREINIT:4750
SCOREDIFF:0
#START
#MEASURE 10/4
#SCROLL 0.8
2,
#BARLINEOFF
2,
#BARLINEON
2,
#BARLINEOFF
2,
#BARLINEON
3, //5
10010010000010010010,
#BARLINEOFF
00002000200200000000,
#BARLINEON
11110,
#BARLINEOFF
00002002002000000200, //9
#BARLINEON
00000000001001000010,
#BARLINEOFF
01000010010000100100,
#BARLINEON
00000000000020002002,
#BARLINEOFF
0, //13
#BARLINEON
11111,
#BARLINEOFF
0002020000,
#BARLINEON
1001001002,
#BARLINEOFF
02002000000020000000, //17
#BARLINEON
10002000020000200000,
#BARLINEOFF
00000200020002000000,
#BARLINEON
12227,
#BARLINEOFF
0,
#BARLINEON
80004, //22
10002002000000001000,
#BARLINEOFF
02200,
#BARLINEON
10002002000000001000,
#BARLINEOFF
0020200200, //26
#BARLINEON
10002002000000001000,
#BARLINEOFF
02200,
#BARLINEON
10002002000000001000,
#BARLINEOFF
00000020020020020000,
#BARLINEON
3,
#BARLINEOFF
0, //32
#BARLINEON
#BPMCHANGE 135
1213,
10201022,
10201111,
#MEASURE 9/4
100000000030000000000000000400000000,
#MEASURE 12/4
#BPMCHANGE 270
#SCROLL 1.5
600000000000000000000000000000000000000000000000000000000000000000000000000000000000000000000000000000000000000008000000000000000000000000000000, //37
#MEASURE 10/4
#SCROLL 1
#GOGOSTART
1111100100,
#BARLINEOFF
2222200020,
#BARLINEON
1110101010,
#BARLINEOFF
20202000000200000000, //41
#BARLINEON
10101010100000000100,
#BARLINEOFF
2222200020,
#BARLINEON
1110101010,
#BARLINEOFF
20202000000200020000, //45
#BARLINEON
100100100100001000010000100000,
#BARLINEOFF
200200200200002000020000200000,
#BARLINEON
100100100100001000010000100000,
#BARLINEOFF
200200200200002000020000200000, //49
#BARLINEON
#MEASURE 12/4
#BPMCHANGE 324
#SCROLL 0.83
201011101010,
#BARLINEOFF
201011101010,
#BARLINEON
201011101010,
#BARLINEOFF
#MEASURE 10/4
#BPMCHANGE 270
#SCROLL 1
20010010101001001010, //53
#GOGOEND
#BARLINEON
2,
#BARLINEOFF
2,
#BARLINEON
2,
#MEASURE 4/4
#BPMCHANGE 108
#SCROLL 2.5
#GOGOSTART
500000000000000000000008,
#GOGOEND
#BPMCHANGE 54
#SCROLL 5
0, //58
#END
