//TJADB Project
TITLE:Ai♡Scream!
TITLEJA:愛♡スクリ~ム!
SUBTITLE:--AiScReam / Love Live! Series
SUBTITLEJA:AiScReam 「ラブライブ!シリーズ」より
BPM:132
WAVE:Ai Scream.ogg
OFFSET:-1.314
DEMOSTART:71.836 //shinuchi:
8810/5350/4080/2740

COURSE:Oni
LEVEL:6
BALLOON:14,3,3,3
SCOREINIT:830,3060
SCOREDIFF:228
#START
1,
2,
7008,
3000300000300011, //4
1001200010102001,
1010201011200020,
1110002020202000,
1110002020202010,
1001200010102001,
1010201011200020,
1110002020202000,
1110002020202000, //12
1000201011102000,
1001201011102000,
1000200022201020,
0020200022201000,
1110201010012000,
1110201010012000,
1000200011102050,
000000000000000008000000500000000000000008000000,
00222040, //21
#GOGOSTART
1020102010201110,
2010222010102000,
1020102010201110,
2010200022202000,
1020102010201110,
2010222010102000,
500000000000000008000000100000000000200000200000,
500000000000000008000000100000000000100100100000, //29
2020101022201010,
2220101022201010,
00334023,
000000300000000000300000600000000008000000000000,
2020101022201010,
2220101022201010,
00334023,
000000300000000000300000600000000000000008000000,
#GOGOEND
0,
0000000000000110, //39
2078,
100000100000200000100000500000000008000000000000,
1010200010000222,
1000100040000111,
2078,
100000100000200000100000500000000008000000000000,
1111101020020222,
1000100040000011, //47
2078,
100000100000200000100000500000000008000000000000,
1010111020020222,
10104003,
#GOGOSTART
300000000000000000000000600000000008000000000000,
300000300000400000300000600000000008000000000000,
1011201010112010,
30334000, //55
#GOGOEND
1222,
2222,
0222,
2222,
0,
0, //61
#END

COURSE:Hard
LEVEL:4
BALLOON:33,2,2,2
SCOREINIT:910,4810
SCOREDIFF:278
#START
1,
2,
1,
30300300, //4
1212,
11201000,
22022220,
22022220,
1212,
11201000,
22022220,
22022220, //12
10201110,
10201110,
20202021,
02202020,
11201010,
11201010,
7,
00000008,
0004, //21
#GOGOSTART
10101022,
11221020,
10101022,
1200,
10101022,
11221020,
500000000000000000000000000000000008000000000000,
500000000000000000000000000000000008000000000000, //29
11112011,
20112011,
00334006,
000000000000000000000000000000000008000000000000,
11112011,
20112011,
00334006,
000000000000000000000000000000000000000008000000,
#GOGOEND
0,
0, //39
1078,
11212000,
11201000,
3340,
1078,
11212000,
11201000,
3340, //47
1078,
11212000,
11201000,
3340,
#GOGOSTART
34,
33434000,
11201120,
3340, //55
#GOGOEND
0222,
2222,
0222,
2222,
0,
0, //61
#END

COURSE:Normal
LEVEL:3
BALLOON:20
SCOREINIT:860,6220
SCOREDIFF:295
#START
1,
1,
1,
3300, //4
11,
11101000,
2022,
2022,
11,
11101000,
2022,
2022, //12
10101110,
10101110,
20202002,
02202000,
11101010,
11101010,
7,
00000008,
0, //21
#GOGOSTART
10101011,
1122,
10101011,
2200,
10101011,
1122,
500000000000000000000000000000000008000000000000,
500000000000000000000000000000000008000000000000, //29
11102010,
20102011,
00444006,
000000000000000000000000000000000008000000000000,
11102010,
20102011,
00444006,
000000000000000000000000000000000000000008000000,
#GOGOEND
0,
0, //39
12,
500000000000000000000000000000000008000000000000,
11101000,
3330,
12,
500000000000000000000000000000000008000000000000,
11101000,
3330, //47
12,
500000000000000000000000000000000008000000000000,
11101000,
3330,
#GOGOSTART
34,
600000000000000000000000000000000008000000000000,
11101110,
3330, //55
#GOGOEND
0222,
2222,
0222,
2222,
0,
0, //61
#END

COURSE:Easy
LEVEL:2
BALLOON:16
SCOREINIT:900,11010
SCOREDIFF:563
#START
0,
0,
0,
3300, //4
11,
1,
2,
2,
11,
1,
2,
2, //12
1110,
1110,
500000000000000000000008000000000000000000500000,
000000000000000000000008000000000000000000000000,
1110,
1110,
7,
00000008,
0, //21
#GOGOSTART
1110,
11,
1110,
2,
1110,
11,
500000000000000000000000000008000000000000000000,
500000000000000000000000000008000000000000000000, //29
1110,
11,
00303006,
000000000000000000000008000000000000000000000000,
1110,
11,
00303006,
000000000000000000000000000000000000000008000000,
#GOGOEND
0,
0, //39
12,
500000000000000000000000000008000000000000000000,
1110,
3330,
12,
500000000000000000000000000008000000000000000000,
1110,
3330, //47
12,
500000000000000000000000000008000000000000000000,
1110,
3330,
#GOGOSTART
34,
600000000000000000000000000008000000000000000000,
1110,
3330, //55
#GOGOEND
0,
2022,
0,
2022,
0,
0, //61
#END
