//TJADB Project
TITLE:vs.VIGVANGS
TITLEJA:vs.VIGVANGS
SUBTITLE:--MisoilePunch♪
SUBTITLEJA:MisoilePunch♪
BPM:180
WAVE:vs VIGVANGS.ogg
OFFSET:-0.740
DEMOSTART:59.740

COURSE:Edit
LEVEL:10
BALLOON:2
SCOREINIT:700
SCOREDIFF:0
#START
#BARLINEOFF
#MEASURE 1/4
#SCROLL 3
4,
#BARLINEON
#MEASURE 4/4
#SCROLL 1
300000000300000000202020,
300000000300000000202020,
300000000300000000202020,
000300000000300000000300000000101010200000100000,
#GOGOSTART
102020102020100200100200100200100200100010001000,
102020102020100200100200100200100200100010001000,
102020102020102020102020100200100200100010001000,
#GOGOEND
000000100100202020101020000200000200
#SCROLL 3
#GOGOSTART
300000000000, //9
#SCROLL 1
100000102010202020100200000010200100000200100000,
100000102010202020100200000010200100000200100000,
100000102010202020100200000010200100000200100000,
000300000000300000000300000000300000100020002000,
100000102010202020100200000010200100000200100000,
200000102010202020100200000010200200000200100000,
112112112112111222111222,
0300300300304000, //17
#GOGOEND
3,
3,
#GOGOSTART
300000200200102000102000102000102000101010200100,
200000101010200100200100500000000008000000000000,
#GOGOEND
3,
3,
#GOGOSTART
300000200200102000102000102020102020100100200100,
200000101010200100200100500000000008000000000000, //25
#GOGOEND
100000200020100010200020100100100100200020100010,
100000200020100010200020100100100100200020100010,
100000200200100000200200100100200200101010101010,
#GOGOSTART
200200100200100100200200102020102020102020102020,
#GOGOEND
100000200020100010200020100100100100200020100010,
100000200020100010200020100100100100200020100010,
#GOGOSTART
100000102000102000102000102020102020100100200100,
200000101010200100200100500000000008000000000000, //33
#GOGOEND
100222222222102020202020,
100020002000200200200200102020202020200020002000,
100222222222102020202020,
100020002000200200200200102020202020200020002000,
100000202020100100200200,
100200200200101010202020, //39
#SCROLL 1.33
100000202020100100200200100200200200101010202020,
#SCROLL 1.5
100000202020100100200200100200100200101010202020,
#SCROLL 1.67
3030303011111111,
#SCROLL 1.75
122012201220122012201220,
#SCROLL 1
300000000200000000200000100000000200202020202020,
100200200100200200100200
#SCROLL 7
600008000000
#SCROLL 1
400000000000, //45
#GOGOSTART
3022120210112120,
1021021220221210,
300000000300000000600000000000000008000000002020,
121212121212100100102100,
000102101202101200200200,
100010200000100000300000000000100000200020500008,
000000100010100000500008000000100000200000202020,
200200200000100000101010100000400000000000000000, //53
100100200200100200200200100100200100201010201010,
200100200100100200100200200100200200101010200000,
300000000300000000300000101010202020101020102010,
20340403,
000102101202101200200200,
100200222111221212100300,
000000201000201000201000200100100100200000400000,
000000300000300000600000000000000008000000000000, //61
#GOGOEND
#BPMCHANGE 150
10001000100010001000100011111111,
10102010102010102000002000002222,
1111102201102210,
2112112112112120,
#BPMCHANGE 300
#GOGOSTART
1111102201102210,
2112112112112120,
1111102201102210,
2112112112112120, //69
#GOGOEND
#BPMCHANGE 150
2211012012012011,
2012012211221110,
#BPMCHANGE 300
#GOGOSTART
2211012012012011,
2012012211221110,
2211012012012011,
2012012211221110, //75
#GOGOEND
#MEASURE 2/4
#BPMCHANGE 160
#SCROLL 1.33
101020101020100100200200,
#BPMCHANGE 162
101010200200100010001000,
#BPMCHANGE 164
#SCROLL 1.5
101020101020100100200200,
#BPMCHANGE 166
101010200200100010001000, //79
#MEASURE 1/4
#BPMCHANGE 168
#SCROLL 1.59
112112,
1222,
#BPMCHANGE 170
#SCROLL 1.68
112112,
1222,
#BPMCHANGE 172
#SCROLL 1.78
112112,
#BPMCHANGE 174
#SCROLL 1.83
112112,
#BPMCHANGE 176
#SCROLL 1.89
122122,
#BPMCHANGE 178
#SCROLL 1.94
122122,
#MEASURE 4/4
#BPMCHANGE 180
#SCROLL 2
111111111111111111111111, //88
#MEASURE 1/16
#SCROLL 3
7,
#SCROLL 7.65
8,
#SCROLL 7.13
0,
#SCROLL 6.7
0,
#SCROLL 6.27
0,
#SCROLL 5.9
0,
#SCROLL 5.5
0,
#SCROLL 5.16
0,
#SCROLL 4.82
0,
#SCROLL 4.54
0,
#SCROLL 4.24
0,
#SCROLL 3.98
0,
#SCROLL 3.73
0,
#SCROLL 3.48
0,
#SCROLL 3.26
0,
#SCROLL 3.05
0,
#SCROLL 2.86
0,
#SCROLL 2.68
0,
#SCROLL 2.5
1,
#SCROLL 2.35
0,
#SCROLL 2.2
1,
#SCROLL 2.06
0,
#SCROLL 1.93
1,
#SCROLL 1.81
0,
#SCROLL 1.69
2,
#SCROLL 1.58
0,
#SCROLL 1.48
2,
#SCROLL 1.39
0,
#SCROLL 1.3
2,
#SCROLL 1.22
0,
#SCROLL 1.14
2,
#SCROLL 1.07
0, //120
#MEASURE 4/4
#SCROLL 1
00012001200120012001200120000000,
3,
0,
300000000300000000600000000000000008000000000000,
121212121212100202200200, //125
000000100010
#SCROLL 3
#GOGOSTART
400000
#SCROLL 1.5
101010200100100100200100200100,
201010200100100100202020202020100100202020500008,
000000101010100000500008000000202000200000202020,
200200200000100000101010100000400000000000200000,
000212121212111222122122,
100000200100000200100200102020100200101010200020,
500000000000000008000010201010101010200010200020,
10340403, //133
#GOGOEND
000000100010
#SCROLL 2.5
#GOGOSTART
400000
#SCROLL 1.5
101010200200100010200020100010,
211211211200111222200300,
00001200120012004000300030004000,
000000201010200100201010101010101020200000400000, //137
#GOGOEND
#MEASURE 1/16
0,
#SCROLL 1.79
0,
#SCROLL 2.15
0,
#SCROLL 2.57
0,
#SCROLL 3.07
0,
#SCROLL 3.68
0,
#SCROLL 4.4
0,
#SCROLL 5.24
0,
#SCROLL 6.29
0,
#SCROLL 7.53
0,
#SCROLL 8.98
0,
#SCROLL 10.73
0,
#SCROLL 12.87
0,
#SCROLL 15.39
0,
#BARLINEOFF
#MEASURE 1/8
#SCROLL 1
3,
#BARLINEON
#MEASURE 4/4
000222100200100000400000, //153
#GOGOSTART
102020102020100200100200100200100200100020002000,
102020102020100200100200100200100200100020002000,
102020102020100200100200100200100200100020002000,
120120120121
#SCROLL 2
3000, //157
#BPMCHANGE 360
#SCROLL 1
100020002000100020002000100000200000100100100000,
100020002000100020002000100000100000200200200000,
100020002000100020002000100000200000100100100000,
100020002000100000100000200000100000200200200200,
100020002000100020002000100000200000100100100000,
100020002000100020002000100000100000200200200000,
#GOGOEND
12012012,
02221122, //165
#GOGOSTART
100000000000100020002000100020002000100200100200,
100000000000100020002000100020002000100200100200,
100000000000100020002000100020002000100200100200,
100000000000100020002000100020002000100200100200,
#GOGOEND
000221221221,
200200200200100020002000100010002000100020001000,
200100100100200010001000200100200100200100100100, //172
1
#SCROLL 1.5
#GOGOSTART
3
#SCROLL 2.25
4
#SCROLL 3
4,
#SCROLL 1
00000022,
#GOGOEND
1,
0, //176
#END

COURSE:Oni
LEVEL:10
BALLOON:18
SCOREINIT:950
SCOREDIFF:0
#START
#BARLINEOFF
#MEASURE 1/4
#SCROLL 2
4,
#BARLINEON
#MEASURE 4/4
#SCROLL 1
300000000300000000202020,
300000000300000000202020,
300000000300000000202020,
0300300300304000,
#GOGOSTART
101000202000100200100200100000200000100020001000,
101000202000100200100200100000200000100020001000,
101000202000100200100200100000200000100020001000,
#GOGOEND
101112120202
#SCROLL 3
#GOGOSTART
3000, //9
#SCROLL 1
1022111111111111,
1022111111111111,
1022111111111111,
0300300300303000,
1022111112121212,
1022111112121212,
1022112212121122,
0300300300304000, //17
#GOGOEND
3,
3,
#GOGOSTART
1020122122121222,
100000100000200000200000500000000008000000000000,
#GOGOEND
3,
3,
#GOGOSTART
1021112112121211,
200000100100200000200000500000000008000000000000, //25
#GOGOEND
100000200000100010200000100100200100200000100010,
100000200000100010200000100100200100200000100010,
1022102211112011,
#GOGOSTART
2010121210201122,
#GOGOEND
100000200000100010200000100100200100200000100010,
100000200000100010200000100100200100200000100010,
#GOGOSTART
1011111120202211,
200000100100200000200000500000000008000000000000, //33
#GOGOEND
102222102220,
122122122122,
102222102220,
122112121221,
22,
200200222222, //39
1022112011221212,
100000200200100100200000101010200200100200100200,
1010101011101111,
110011001100110011001100,
3002002010020020,
12212212
#SCROLL 2
3000
#SCROLL 1
4000, //45
#GOGOSTART
3012020210112020,
1021021220202010,
3004004000200200,
500000000000000008000000000000100000200000200000,
000102102102101100200200,
101200100400000100201100,
0010102000102022,
2220101000400000, //53
3012020210112020,
1021021220202010,
3004004010020010,
30340404,
000102102102101100200200,
100200101100000100100200,
0021212121112040,
000000300000300000600000000000000008000000000000, //61
#GOGOEND
#BPMCHANGE 150
1010101010102222,
1121121120020020,
1112201201121220,
2102102102102020,
#BPMCHANGE 300
#GOGOSTART
12121211,
1020102010201110,
12121211,
1110102010201000, //69
#GOGOEND
#BPMCHANGE 150
2212012012012012,
1021022022221010,
#BPMCHANGE 300
#GOGOSTART
12121211,
12121211,
1110201011102010,
1020102011102000, //75
#GOGOEND
#MEASURE 2/4
#BPMCHANGE 160
#SCROLL 1.33
12121010,
#BPMCHANGE 162
100222,
#BPMCHANGE 164
#SCROLL 1.5
12121010,
#BPMCHANGE 166
100222, //79
#MEASURE 1/4
#BPMCHANGE 168
#SCROLL 1.67
11,
2222,
#BPMCHANGE 170
11,
2222,
#BPMCHANGE 172
1212,
#BPMCHANGE 174
1212,
#BPMCHANGE 176
1212,
#BPMCHANGE 178
1212,
#MEASURE 4/4
#BPMCHANGE 180
#SCROLL 2
7, //88
#MEASURE 1/16
#SCROLL 3
8,
#SCROLL 7.65
0,
#SCROLL 7.13
0,
#SCROLL 6.7
0,
#SCROLL 6.27
0,
#SCROLL 5.9
0,
#SCROLL 5.5
0,
#SCROLL 5.16
0,
#SCROLL 4.82
0,
#SCROLL 4.54
0,
#SCROLL 4.24
0,
#SCROLL 3.98
0,
#SCROLL 3.73
0,
#SCROLL 3.48
0,
#SCROLL 3.26
0,
#SCROLL 3.05
0,
#SCROLL 2.86
0,
#SCROLL 2.68
0,
#SCROLL 2.5
1,
#SCROLL 2.35
0,
#SCROLL 2.2
1,
#SCROLL 2.06
0,
#SCROLL 1.93
1,
#SCROLL 1.81
0,
#SCROLL 1.69
2,
#SCROLL 1.58
0,
#SCROLL 1.48
2,
#SCROLL 1.39
0,
#SCROLL 1.3
2,
#SCROLL 1.22
0,
#SCROLL 1.14
2,
#SCROLL 1.07
0, //120
#MEASURE 4/4
#SCROLL 1
03333340,
3,
0,
3003003000100100,
500000000000000008000000000000200000200000200000, //125
000100
#SCROLL 1.5
#GOGOSTART
400100102100102100,
101200100400202100201100,
100000101010100000400000100000202020100000200200,
2220101000400020,
000000100200100200100200101010101010202020202020,
1021021022101212,
500000000008000000100100200100200200100200100100,
10340403, //133
#GOGOEND
000100
#GOGOSTART
400100201201201100,
111201200200100222100300,
03334334,
000000200000200000500000000000000008000000400000, //137
#GOGOEND
#MEASURE 1/16
0,
#SCROLL 1.79
0,
#SCROLL 2.15
0,
#SCROLL 2.57
0,
#SCROLL 3.07
0,
#SCROLL 3.68
0,
#SCROLL 4.4
0,
#SCROLL 5.24
0,
#SCROLL 6.29
0,
#SCROLL 7.53
0,
#SCROLL 8.98
0,
#SCROLL 10.73
0,
#SCROLL 12.87
0,
#SCROLL 15.39
0,
#BARLINEOFF
#MEASURE 1/8
#SCROLL 1
3,
#BARLINEON
#MEASURE 4/4
0022202010004000, //153
#GOGOSTART
101000202000100200100200100200100200100010001000,
101000202000100200100200100200100200100010001000,
101000202000100200100200100200100200100010001000,
120120120120
#SCROLL 2
3000, //157
#BPMCHANGE 360
#SCROLL 1
12121211,
12221221,
12121211,
12221221,
12121211,
12221221,
#GOGOEND
12012012,
02221122, //165
#GOGOSTART
300000202020100200100200,
100000202020100200100200,
100000202020100200100200,
100000202020100200100200,
#GOGOEND
00212111,
22221111,
2020101020201111, //172
1
#GOGOSTART
344,
00000022,
#GOGOEND
1,
0, //176
#END

COURSE:Hard
LEVEL:8
BALLOON:14
SCOREINIT:1280
SCOREDIFF:0
#START
#BARLINEOFF
#MEASURE 1/4
4,
#BARLINEON
#MEASURE 4/4
#SCROLL 1
30030020,
30030020,
30030020,
0300300300304000,
#GOGOSTART
101000202000100100100000200000200000100010001000,
101000202000100100100000200000200000100010001000,
101000202000100100100000200000200000100010001000,
#GOGOEND
101022220200
#GOGOSTART
3000, //9
1011111011111011,
1011111011111011,
1011111011111010,
0300300300303000,
1011111022222011,
1011111022222010,
1022201110111120,
0300300300304000, //17
#GOGOEND
1,
1,
#GOGOSTART
1000111011101020,
100000100000200000200000500000000008000000000000,
#GOGOEND
1,
1,
#GOGOSTART
1010111011101020,
200000100000200000200000500000000008000000000000, //25
#GOGOEND
1020102011102000,
1020102011102000,
1022201110102010,
#GOGOSTART
2010111020202220,
#GOGOEND
1020102011102000,
1020102011102000,
#GOGOSTART
1011101120102010,
200000100000200000200000500000000008000000000000, //33
#GOGOEND
100111100111,
100222202202,
100111100111,
100222201111,
22,
2022, //39
1010202011102020,
1010222011102020,
1010101011101110,
222222,
31,
1001001030004000, //45
#GOGOSTART
3011020220102020,
1022010110202010,
3003003000200200,
500000000000000008000000000000100000200000200000,
0011101110202020,
1120104000102010,
01120122,
00110400, //53
3011020220102020,
1022010110202010,
3003003020020020,
30340404,
0011101110102020,
11210112,
02222114,
000000300000300000600000000000000008000000000000, //61
#GOGOEND
#BPMCHANGE 150
11111111,
2021021020020020,
1010201101102000,
1101101101102000,
#BPMCHANGE 300
#GOGOSTART
10101011,
10101110,
10101011,
1120, //69
#GOGOEND
#BPMCHANGE 150
2012012012012000,
1022022022201000,
#BPMCHANGE 300
#GOGOSTART
10101011,
1111,
11101110,
11111000, //75
#GOGOEND
#MEASURE 2/4
#BPMCHANGE 160
#SCROLL 1.33
1011,
#BPMCHANGE 162
12,
#BPMCHANGE 164
#SCROLL 1.5
1011,
#BPMCHANGE 166
12, //79
#MEASURE 1/4
#BPMCHANGE 168
#SCROLL 1.67
11,
2,
#BPMCHANGE 170
11,
2,
#BPMCHANGE 172
11,
#BPMCHANGE 174
11,
#BPMCHANGE 176
1110,
#BPMCHANGE 178
1110,
#MEASURE 4/4
#BPMCHANGE 180
#SCROLL 2
7, //88
#MEASURE 1/16
#SCROLL 3
8,
#SCROLL 7.65
0,
#SCROLL 7.13
0,
#SCROLL 6.7
0,
#SCROLL 6.27
0,
#SCROLL 5.9
0,
#SCROLL 5.5
0,
#SCROLL 5.16
0,
#SCROLL 4.82
0,
#SCROLL 4.54
0,
#SCROLL 4.24
0,
#SCROLL 3.98
0,
#SCROLL 3.73
0,
#SCROLL 3.48
0,
#SCROLL 3.26
0,
#SCROLL 3.05
0,
#SCROLL 2.86
0,
#SCROLL 2.68
0,
#SCROLL 2.5
1,
#SCROLL 2.35
0,
#SCROLL 2.2
1,
#SCROLL 2.06
0,
#SCROLL 1.93
1,
#SCROLL 1.81
0,
#SCROLL 1.69
2,
#SCROLL 1.58
0,
#SCROLL 1.48
2,
#SCROLL 1.39
0,
#SCROLL 1.3
2,
#SCROLL 1.22
0,
#SCROLL 1.14
2,
#SCROLL 1.07
0, //120
#MEASURE 4/4
#SCROLL 1
03333340,
3,
0,
3003003000100100,
500000000000000008000000000000200000200000200000, //125
01
#SCROLL 1.5
#GOGOSTART
411122,
1120104000102210,
0011104000101020,
02110402,
0022222011102220,
1011011020101020,
500000000008000000100100200000200000100000100000,
10340403, //133
#GOGOEND
0010
#GOGOSTART
401020102210,
1120202010200030,
03334334,
000000200000200000500000000000000008000000400000, //137
#GOGOEND
#MEASURE 1/16
0,
#SCROLL 1.79
0,
#SCROLL 2.15
0,
#SCROLL 2.57
0,
#SCROLL 3.07
0,
#SCROLL 3.68
0,
#SCROLL 4.4
0,
#SCROLL 5.24
0,
#SCROLL 6.29
0,
#SCROLL 7.53
0,
#SCROLL 8.98
0,
#SCROLL 10.73
0,
#SCROLL 12.87
0,
#SCROLL 15.39
0,
#BARLINEOFF
#MEASURE 1/8
#SCROLL 1
3,
#BARLINEON
#MEASURE 4/4
02221040, //153
#GOGOSTART
101000202000100100100000200000200000100010001000,
101000202000100100100000200000200000100010001000,
101000202000100100100000200000200000100010001000,
220220220220
#SCROLL 2
3000, //157
#BPMCHANGE 360
#SCROLL 1
10101011,
10201110,
10101011,
10201110,
10101011,
10201110,
#GOGOEND
2,
01, //165
#GOGOSTART
30201212,
10201212,
10201212,
10201212,
#GOGOEND
0222,
22201110,
22102211, //172
1
#GOGOSTART
344,
00000011,
#GOGOEND
1,
0, //176
#END

COURSE:Normal
LEVEL:7
BALLOON:10
SCOREINIT:1930
SCOREDIFF:0
#START
#BARLINEOFF
#MEASURE 1/4
4,
#BARLINEON
#MEASURE 4/4
#SCROLL 1
30030000,
30030000,
30030000,
0300300300304000,
#GOGOSTART
100200100200100200101010,
100200100200100200101010,
100200100200100200101010,
#GOGOEND
101020020000
#GOGOSTART
3000, //9
10111111,
10111111,
10111111,
0300300300303000,
10111122,
10111122,
11112222,
0300300300404000, //17
#GOGOEND
1,
1,
#GOGOSTART
10101122,
100000000000200000200000500000000008000000000000,
#GOGOEND
1,
1,
#GOGOSTART
10101122,
100000000000200000200000500000000008000000000000, //25
#GOGOEND
12121020,
12121020,
12121022,
#GOGOSTART
11102220,
#GOGOEND
12121020,
12121020,
#GOGOSTART
12121022,
100000000000200000200000500000000008000000000000, //33
#GOGOEND
1212,
1110,
1212,
1111,
22,
2022, //39
11221020,
11221020,
11101111,
500000000000000000000000000000000008000000000000,
31,
1134, //45
#GOGOSTART
3001010020202000,
1002020010101000,
3003003000100100,
500000000000000008000000000000200000200000200000,
01111220,
12140121,
01120122,
00110400, //53
3001010020202000,
1002020010101000,
300000000300000000600000000000000008000000000000,
30340404,
01111220,
11210112,
02201104,
000000300000300000600000000000000008000000000000, //61
#GOGOEND
#BPMCHANGE 150
1111,
1000100020020020,
10210120,
1001001001002000,
#BPMCHANGE 300
#GOGOSTART
11,
1110,
11,
1110, //69
#GOGOEND
#BPMCHANGE 150
2002002002002000,
12022210,
#BPMCHANGE 300
#GOGOSTART
11,
1110,
11,
1110, //75
#GOGOEND
#MEASURE 2/4
#BPMCHANGE 160
#SCROLL 1.33
1,
#BPMCHANGE 162
12,
#BPMCHANGE 164
#SCROLL 1.5
1,
#BPMCHANGE 166
12, //79
#MEASURE 1/4
#BPMCHANGE 168
#SCROLL 1.67
1,
2,
#BPMCHANGE 170
1,
2,
#BPMCHANGE 172
1,
#BPMCHANGE 174
1,
#BPMCHANGE 176
11,
#BPMCHANGE 178
1,
#MEASURE 4/4
#BPMCHANGE 180
#SCROLL 2
7, //88
#MEASURE 1/16
#SCROLL 3
8,
#SCROLL 7.65
0,
#SCROLL 7.13
0,
#SCROLL 6.7
0,
#SCROLL 6.27
0,
#SCROLL 5.9
0,
#SCROLL 5.5
0,
#SCROLL 5.16
0,
#SCROLL 4.82
0,
#SCROLL 4.54
0,
#SCROLL 4.24
0,
#SCROLL 3.98
0,
#SCROLL 3.73
0,
#SCROLL 3.48
0,
#SCROLL 3.26
0,
#SCROLL 3.05
0,
#SCROLL 2.86
0,
#SCROLL 2.68
0,
#SCROLL 2.5
1,
#SCROLL 2.35
0,
#SCROLL 2.2
1,
#SCROLL 2.06
0,
#SCROLL 1.93
1,
#SCROLL 1.81
0,
#SCROLL 1.69
1,
#SCROLL 1.58
0,
#SCROLL 1.48
1,
#SCROLL 1.39
0,
#SCROLL 1.3
1,
#SCROLL 1.22
0,
#SCROLL 1.14
1,
#SCROLL 1.07
0, //120
#MEASURE 4/4
#SCROLL 1
03333330,
3,
0,
3003003000100100,
500000000000000008000000000000200000200000200000, //125
00
#SCROLL 1.5
#GOGOSTART
401120,
12140111,
01140222,
00110402,
02221120,
1001001020202000,
500000000008000000000000200000200000100000100000,
10330403, //133
#GOGOEND
00
#GOGOSTART
401122,
12220203,
03334334,
000000400000400000600000000000000008000000400000, //137
#GOGOEND
#MEASURE 1/16
0,
#SCROLL 1.79
0,
#SCROLL 2.15
0,
#SCROLL 2.57
0,
#SCROLL 3.07
0,
#SCROLL 3.68
0,
#SCROLL 4.4
0,
#SCROLL 5.24
0,
#SCROLL 6.29
0,
#SCROLL 7.53
0,
#SCROLL 8.98
0,
#SCROLL 10.73
0,
#SCROLL 12.87
0,
#SCROLL 15.39
0,
#BARLINEOFF
#MEASURE 1/8
#SCROLL 1
3,
#BARLINEON
#MEASURE 4/4
02201040, //153
#GOGOSTART
100200100200100200101010,
100200100200100200101010,
100200100200100200101010,
020020020020
#SCROLL 2
3000, //157
#BPMCHANGE 360
#SCROLL 1
1110,
1120,
1110,
1120,
1110,
1122,
#GOGOEND
2,
01, //165
#GOGOSTART
3011,
1011,
1011,
1011,
#GOGOEND
0500,
0,
000000000000000000000000000000000000000000000008, //172
0
#GOGOSTART
333,
0,
#GOGOEND
1,
0, //176
#END

COURSE:Easy
LEVEL:5
BALLOON:8
SCOREINIT:2670
SCOREDIFF:0
#START
#BARLINEOFF
#MEASURE 1/4
4,
#BARLINEON
#MEASURE 4/4
#SCROLL 1
10010000,
10010000,
10010000,
0300300300004000,
#GOGOSTART
100100100100100000101000,
100100100100100000101000,
100100100100100000101000,
#GOGOEND
100
#GOGOSTART
3, //9
10111010,
10111010,
10111010,
0300300300303000,
10111020,
10111020,
11102020,
0300300300303000, //17
#GOGOEND
1,
1,
#GOGOSTART
10101011,
100000000000100000000000500000000008000000000000,
#GOGOEND
1,
1,
#GOGOSTART
10101110,
100000000000100000000000500000000008000000000000, //25
#GOGOEND
1110,
1110,
1111,
#GOGOSTART
11102000,
#GOGOEND
1110,
1110,
#GOGOSTART
10101011,
100000000000100000000000500000000008000000000000, //33
#GOGOEND
11,
1,
11,
11,
2,
0, //39
1110,
1112,
10101110,
500000000000000000000000000000000008000000000000,
3,
1034, //45
#GOGOSTART
30101110,
10111010,
3003003000000000,
500000000000000008000000000000200000000000200000,
01101010,
11040101,
01110111,
00110400, //53
30101110,
10111010,
3003003000000000,
10110404,
01101010,
11110101,
01101104,
01110000, //61
#GOGOEND
#BPMCHANGE 150
11,
1120,
10110110,
1001001000002000,
#BPMCHANGE 300
#GOGOSTART
11,
1,
11,
1, //69
#GOGOEND
#BPMCHANGE 150
20020020,
11011010,
#BPMCHANGE 300
#GOGOSTART
11,
1,
11,
1, //75
#GOGOEND
#MEASURE 2/4
#BPMCHANGE 160
#SCROLL 1.33
1,
#BPMCHANGE 162
0,
#BPMCHANGE 164
#SCROLL 1.5
1,
#BPMCHANGE 166
0, //79
#MEASURE 1/4
#BPMCHANGE 168
#SCROLL 1.67
1,
0,
#BPMCHANGE 170
1,
0,
#BPMCHANGE 172
1,
#BPMCHANGE 174
1,
#BPMCHANGE 176
1,
#BPMCHANGE 178
1,
#MEASURE 4/4
#BPMCHANGE 180
#SCROLL 2
7, //88
#MEASURE 1/16
#SCROLL 3
8,
#SCROLL 7.65
0,
#SCROLL 7.13
0,
#SCROLL 6.7
0,
#SCROLL 6.27
0,
#SCROLL 5.9
0,
#SCROLL 5.5
0,
#SCROLL 5.16
0,
#SCROLL 4.82
0,
#SCROLL 4.54
0,
#SCROLL 4.24
0,
#SCROLL 3.98
0,
#SCROLL 3.73
0,
#SCROLL 3.48
0,
#SCROLL 3.26
0,
#SCROLL 3.05
0,
#SCROLL 2.86
0,
#SCROLL 2.68
0,
#SCROLL 2.5
0,
#SCROLL 2.35
0,
#SCROLL 2.2
0,
#SCROLL 2.06
0,
#SCROLL 1.93
0,
#SCROLL 1.81
0,
#SCROLL 1.69
0,
#SCROLL 1.58
0,
#SCROLL 1.48
0,
#SCROLL 1.39
0,
#SCROLL 1.3
0,
#SCROLL 1.22
0,
#SCROLL 1.14
0,
#SCROLL 1.07
0, //120
#MEASURE 4/4
#SCROLL 1
03333330,
3,
0,
3,
500000000000000000000008000000000000000000000000, //125
0
#SCROLL 1.5
#GOGOSTART
411,
11040111,
01040111,
00110400,
02201110,
1001001010002000,
500000000008000000000000100000000000100000100000,
10330403, //133
#GOGOEND
0
#GOGOSTART
411,
11110203,
03303304,
03330000, //137
#GOGOEND
#MEASURE 1/16
0,
#SCROLL 1.79
0,
#SCROLL 2.15
0,
#SCROLL 2.57
0,
#SCROLL 3.07
0,
#SCROLL 3.68
0,
#SCROLL 4.4
0,
#SCROLL 5.24
0,
#SCROLL 6.29
0,
#SCROLL 7.53
0,
#SCROLL 8.98
0,
#SCROLL 10.73
0,
#SCROLL 12.87
0,
#SCROLL 15.39
0,
#BARLINEOFF
#MEASURE 1/8
#SCROLL 1
3,
#BARLINEON
#MEASURE 4/4
0014, //153
#GOGOSTART
100100100100100000101000,
100100100100100000101000,
100100100100100000101000,
010010010000
#SCROLL 2
3000, //157
#BPMCHANGE 360
#SCROLL 1
11,
1110,
11,
1110,
11,
1110,
#GOGOEND
2,
0, //165
#GOGOSTART
3011,
1011,
1011,
1011,
#GOGOEND
0500,
0,
000000000000000000000000000000000000000000000008, //172
0
#GOGOSTART
333,
0,
#GOGOEND
1,
0, //176
#END
