//TJADB Project
TITLE:Fashion Monster
TITLEJA:ファッションモンスター
SUBTITLE:--Kyary Pamyu Pamyu
SUBTITLEJA:きゃりーぱみゅぱみゅ
BPM:161.54
WAVE:Fashion Monster.ogg
OFFSET:-1.804
DEMOSTART:76.030

COURSE:Oni
LEVEL:7
BALLOON:28,28,3,3,3,3,3
SCOREINIT:790
SCOREDIFF:170
#START
#SCROLL 0.99
2002200220202220,
#BPMCHANGE 159.47
#SCROLL 1
2011,
#BPMCHANGE 158.94
#SCROLL 1.01
10070000,
#BPMCHANGE 159.36
#SCROLL 1
,
#BPMCHANGE 161.97
#SCROLL 0.99
8,
#BPMCHANGE 159.8
#SCROLL 1
0011,
#BPMCHANGE 158.39
#SCROLL 1.01
10070000,
#BPMCHANGE 160.75
#SCROLL 1
,
#BPMCHANGE 160.4
8,
#BPMCHANGE 159.73
0033,
#BPMCHANGE 160.02
30101200,
10202200,
10101200,
1033,
#BPMCHANGE 159.62
30101200,
10202200,
10101200,
#BPMCHANGE 161.24
#SCROLL 0.99
2002200220202220,
#BPMCHANGE 160
#SCROLL 1
1020111010201110,
12021202,
1020111010201110,
12021202,
1020111010201110,
12021202,
5000000000000000000000000000000000000000000000000000000000000008,
,
1020112010201120,
12021202,
1020112010201120,
12021202,
1020112010201120,
12021202,
1212,
1020022020022020,
0011101020100010,
0011101020100020,
0011101020100010,
0011101022202020,
0011101020100010,
0011101020100020,
0011101020100010,
0011101022202020,
7000800011101010,
7000800022202020,
7000800011101010,
0022202010101000,
7000800011101010,
7000800022202020,
01122112,
0033,//50
#GOGOSTART
1010201110102011,
11213030,
1010201110102011,
1010200000111020,
2011101010201020,
0020000000111020,
2011101010201020,
02003030,
1010201110102011,
11213030,
1010201110102011,
11213030,
1010201110102011,
11213030,
3212,
500000000000000000000000000000000008000000000000,//66
#GOGOEND
#END

COURSE:Hard
LEVEL:5
BALLOON:23,22,21,21
SCOREINIT:980
SCOREDIFF:240
#START
,
0011,//2
10070000,
,
8,
0011,
10070000,
,
8,
0033,
30090000,
0009,
8,
0033,
30090000,
0009,
8,
,
10110011,
12021200,
10110011,
12021200,
10110011,
12021200,
5000000000000000000000000000000000000000000000000000000000000008,
,
20220022,
12021200,
20220022,
12021200,
20220022,
12021200,
1212,
1,
01102101,
01102102,
01102101,
01112222,
01102101,
01102102,
01102101,
01112222,
0000000011101010,
0000000022202020,
0000000011101010,
02221110,
0000000011101010,
0000000022202020,
02221111,
0033,//50
#GOGOSTART
30060000,
000008000000000000000000300000000000300000000000,
30060000,
000008000000000000000000000000100100100000200000,
21101212,
0020000000111020,
21101212,
02003030,
30060000,
000008000000000000000000300000000000300000000000,
30060000,
000008000000000000000000300000000000300000000000,
30060000,
000008000000000000000000300000000000300000000000,
3212,
500000000000000000000000000000000008000000000000,//66
#GOGOEND
,
,
#END

COURSE:Normal
LEVEL:4
BALLOON:16,16,15,15
SCOREINIT:1050
SCOREDIFF:260
#START
,
0011,//2
10070000,
,
8,
0011,
10070000,
,
8,
0033,
30090000,
0009,
8,
0033,
30090000,
0009,
8,
,
1110,
12,
1110,
12,
1110,
12,
5000000000000000000000000000000000000000000000000000000000000008,
,
2220,
12,
2220,
12,
2220,
12,
11,
1,
1120,
1120,
1120,
11102220,
1120,
1120,
1120,
11102220,
00001111,
00002222,
00001111,
000000500000000000000000000000000008000000000000,
00001111,
00002222,
000000500000000000000000000000000000000008000000,
0033,//50
#GOGOSTART
30060000,
000008000000000000000000300000000000300000000000,
30060000,
000008000000000000000000000000100000100000000000,
11101111,
02000110,
11101111,
02003030,
30060000,
000008000000000000000000300000000000300000000000,
30060000,
000008000000000000000000300000000000300000000000,
30060000,
000008000000000000000000300000000000300000000000,
3212,
500000000000000000000000000000000008000000000000,//66
#GOGOEND
,
,
#END

COURSE:Easy
LEVEL:3
BALLOON:11,11,10,10
SCOREINIT:990
SCOREDIFF:310
#START
,
0011,//2
10070000,
,
8,
0011,
10070000,
,
8,
0033,
30090000,
0009,
8,
0033,
30090000,
0009,
8,
,
11,
1,
11,
1,
11,
1,
5000000000000000000000000000000000000000000000000000000000000008,
,
22,
2,
22,
2,
22,
2,
11,
1,
1110,
11,
1110,
12,
1110,
11,
1110,
12,
000000000000000000000000500000000000000008000000,
000000000000000000000000500000000000000008000000,
000000000000000000000000500000000000000008000000,
0011,
000000000000000000000000500000000000000008000000,
000000000000000000000000500000000000000008000000,
,
0033,//50
#GOGOSTART
30060000,
000008000000000000000000300000000000300000000000,
30060000,
000008000000000000000000000000000000000000000000,
1110,
2,
1110,
2033,
30060000,
000008000000000000000000300000000000300000000000,
30060000,
000008000000000000000000300000000000300000000000,
30060000,
000008000000000000000000300000000000300000000000,
31,
500000000000000000000000000000000008000000000000,//66
#GOGOEND
,//82combo
,
#END
