//TJADB Project
TITLE:SUDDEN GUST OC
TITLEJA:SUDDEN GUST OC
SUBTITLE:--Sampling Masters MEGA
SUBTITLEJA:Sampling Masters MEGA
BPM:150
WAVE:SUDDEN GUST OC.ogg
OFFSET:-1.206
DEMOSTART:13.207 //shinuchi:
4830/2430/1610/1100

COURSE:Oni
LEVEL:9
BALLOON:10,30
SCOREINIT:400,1130
SCOREDIFF:90
#START
1122221211221211,
0022221211221222,
1122221211221211,
0022221211221000,
1122221211221211,
0022221211221222,
#BPMCHANGE 200
#SCROLL 0.75
10222220,
22222101, //8
#SCROLL 1
11121112,
11121112,
11122011,
12212211,
11121112,
11121112,
11122211,
1010201020020010, //16
11121112,
11121112,
11122011,
12212211,
11121112,
11121112,
11122211,
100100200100202020202020, //24
#GOGOSTART
100100200111100100200100,
200111100111100100100200,
21212121,
70000822,
100100200111100100200100,
21212121,
100111100111100000100200,
100100200100111100000000, //32
111100200100000100100200,
100100200100111100100200,
200100200100100111100200,
100100200111100100200200,
200111100100200100100100,
21211112,
100100200111100100200100,
2020002022222220, //40
#GOGOEND
111111100100200000200200,
101010100100100000100000200000000000101010100000,
101010100100100000000000200000000000101010100000,
#MEASURE 5/8
#BPMCHANGE 125
#SCROLL 1.6
2020202022,
#MEASURE 4/4
#BPMCHANGE 200
#SCROLL 1
101010100100100000100000200000000000200000200000,
101010100100100000100000200000000000200000200000,
101010100100100000000000200000000000200000200000,
110000000110000000110000, //48
500000000000000000000000000000000000000008000000,
111100000111100000111100,
500000000000000000000000000000000000000008000000,
111100000111100000111100,
111111100000111111100000,
111100000111100000111100,
7,
0008, //56
1120201000201120,
2010001120002020,
1120201000201120,
2010001120202020,
1120201000201120,
2010001120002020,
1120201000201120,
21120021,
1020002220102010, //65
2220221010002220,
2210100010101000,
2220221010002220,
2210100010101000,
2220221010002220,
2210100010101000,
2220221000002220,
2210000210101000, //73
2022102010221020,
1020202020202220,
120012001200120010002000,
120012001200101010102020,
1010102210102210,
2210221022112211,
212212,
201020101122, //81
#GOGOSTART
2210221022102210,
2210221210003000,
2211221122112211,
2211221210004000,
211211211211,
211211211211,
221221,
#GOGOEND
20000340, //89
1011102011201020,
1011102011202210,
11122011,
12212211,
1121112111211121,
1222122212222222,
0010102022102010,
100100200100202010202010, //97
6,
000008000000000000000000300000000000000000300000,
0,
0,
0,
0, //103
#END

COURSE:Hard
LEVEL:7
BALLOON:8,10
SCOREINIT:450,1760
SCOREDIFF:110
#START
3022202220203003,
0022202220222220,
3022202220203003,
0022202220203000,
3022202220203003,
0022202220222220,
#BPMCHANGE 200
#SCROLL 0.75
30222220,
22222101, //8
#SCROLL 1
11120112,
01120112,
01122001,
12212210,
01120112,
01120112,
01122210,
1010201020020010, //16
01120112,
01120112,
01122001,
12212210,
01120112,
01120112,
01122111,
100100200100202020200000, //24
#GOGOSTART
10201012,
10201012,
10212121,
70000820,
10201012,
10212121,
10010012,
11201000, //32
10210112,
11211012,
10211002,
11210122,
10101012,
10212121,
10210121,
2020002022202000, //40
#GOGOEND
11012020,
11012010,
11002010,
#MEASURE 5/8
#BPMCHANGE 125
#SCROLL 1.6
22222,
#MEASURE 4/4
#BPMCHANGE 200
#SCROLL 1
11012020,
11012020,
12002020,
22022022, //48
500000000000000000000000000000000000000008000000,
22022022,
5,
000000000000000000000000000008000000000000000000,
12121212,
1020102010201011,
12222220,
7008, //56
12020211,
21012020,
12020211,
21022020,
12020211,
21012020,
12020211,
21020021,
02002120, //65
22210022,
21001110,
22210022,
21001110,
22210022,
21001110,
22210022,
21001110, //73
33000000,
03303030,
333300,
303030111100,
330000,
03003030,
303303,
300000000000000030000000000000006000000000080000, //81
#GOGOSTART
1110101011101000,
2220202010000000,
1110101011101000,
2220202010000000,
111100111100,
222200222200,
221221,
#GOGOEND
2004, //89
1011100022202000,
1011100011101110,
01122001,
12212210,
1110111011101000,
2220222022202000,
3030000022202000,
40040040, //97
6,
000008000000000000000000300000000000000000300000,
0,
0,
0,
0, //103
#END

COURSE:Normal
LEVEL:6
BALLOON:6,6
SCOREINIT:510,2750
SCOREDIFF:138
#START
3000000000003003,
0,
3000000000003003,
0,
3000000000003003,
0,
#BPMCHANGE 200
#SCROLL 0.75
3,
0, //8
#SCROLL 1
1111,
10101011,
1222,
20202011,
1111,
10101011,
1222,
20202011, //16
1111,
10101011,
1222,
20202011,
1111,
10101011,
1222,
200000000000000000000000500000000000000008000000, //24
#GOGOSTART
10201011,
500000000000000000000000000008000000000000000000,
2222,
7008,
10201011,
10201011,
10010010,
1210, //32
10010110,
11011010,
20222001,
11110220,
10201011,
10201011,
10200011,
11011010, //40
#GOGOEND
12,
11022000,
11002000,
#MEASURE 5/8
#BPMCHANGE 125
#SCROLL 1.6
20202,
#MEASURE 4/4
#BPMCHANGE 200
#SCROLL 1
11002000,
11022000,
22002000,
20020022, //48
500000000000000000000000000000000000000000000008,
00022020,
5,
000000000000000000000000000008000000000000000000,
1111,
2222,
22202220,
7008, //56
11010011,
01002020,
11010011,
01002020,
11010011,
01002020,
11010011,
11010011,
01001110, //65
2212,
20101110,
2212,
20101110,
2212,
20101110,
22010022,
01001110, //73
33000000,
03303030,
333300,
300000003000000030000000600000000000000008000000,
330000,
03003030,
303303,
300000000000000030000000000000006000000000080000, //81
#GOGOSTART
11011022,
02201000,
11011022,
02201020,
11011022,
02201020,
221221,
#GOGOEND
2, //89
11101110,
11101020,
11102011,
1221,
11111010,
22222020,
33002220,
40040040, //97
6,
000008000000000000000000300000000000000000300000,
0,
0,
0,
0, //103
#END

COURSE:Easy
LEVEL:4
BALLOON:4,4
SCOREINIT:570,5270
SCOREDIFF:173
#START
300000000000000000000000000000000000600000000008,
0,
300000000000000000000000000000000000600000000008,
0,
300000000000000000000000000000000000600000000008,
0,
#BPMCHANGE 200
#SCROLL 0.75
3,
0, //8
#SCROLL 1
1110,
1110,
2220,
2220,
1110,
1110,
2222,
2220, //16
1111,
1110,
2222,
2220,
1111,
1110,
2222,
2, //24
#GOGOSTART
500000000000000008000000000000000000100000000000,
500000000000000000000000000008000000000000000000,
2220,
70000800,
500000000000000008000000000000000000100000000000,
12,
10010010,
500000000000000000000000000008000000000000000000, //32
10010010,
500000000000000000000000000008000000000000000000,
2220,
10010010,
500000000000000008000000000000000000100000000000,
12,
1001,
1011, //40
#GOGOEND
12,
12,
12,
#MEASURE 5/8
#BPMCHANGE 125
#SCROLL 1.6
2,
#MEASURE 4/4
#BPMCHANGE 200
#SCROLL 1
12,
12,
02002000,
20020020, //48
500000000000000000000000000000000000000000000008,
00020020,
5,
000000000000000000000000000008000000000000000000,
1110,
2220,
2220,
70000800, //56
10010010,
01002000,
10010010,
01002000,
10010010,
01002000,
10010010,
10020010,
02001010, //65
500000000000000008000000000000000000500000000000,
000008000000000000000000000000000000000000000000,
500000000000000008000000000000000000500000000000,
000008000000000000000000100000000000000000000000,
500000000000000008000000000000000000500000000000,
000008000000000000000000000000000000000000000000,
10010010,
01000000, //73
600008000000000000000000000000000000000000000000,
000000600008000000000000600000000008000000000000,
600000000000000000000008000000000000000000000000,
600000000000000000000008000000000000000000000000,
600008000000000000000000000000000000000000000000,
000000600008000000000000600000000008000000000000,
33,
600000000000000000000000000008000000000000000000, //81
#GOGOSTART
2222,
2210,
2222,
2210,
1111,
1110,
11,
#GOGOEND
2, //89
1111,
1110,
1120,
1120,
1110,
2220,
600008000000000000000000000000000000000000000000,
40040040, //97
6,
000008000000000000000000300000000000000000300000,
0,
0,
0,
0, //103
#END
