//TJADB Project
TITLE:★Rakuen☆CASINO GALAXY!
TITLEJA:★楽園☆CASINO GALAXY!
SUBTITLE:--nami (OyakataP) feat. galaco
SUBTITLEJA:nami(親方P) feat. galaco
BPM:220
WAVE:Rakuen CASINO GALAXY!.ogg
OFFSET:-1.043
DEMOSTART:62.105 //shinuchi:
8850/5690/4220/2340

COURSE:Oni
LEVEL:7
BALLOON:21,21
SCOREINIT:710,2490
SCOREDIFF:200
#START
101101000202,
200202200200,
101101000202,
200202202200,
301102002200,
301102002200,
301102202203,
001101200200, //8
#GOGOSTART
301102201101,
102001002001,
001102201101,
102001002001,
102001102001,
102002202001,
101102202201,
1122, //16
301102201101,
102201002001,
001102201101,
102001002001,
100000000000200000000000500000000000000008000000,
100200202001,
101000202201,
102001102200, //24
#GOGOEND
7,
000000000000000000000000000000000000000000000008,
0,
0033,
300001002201,
002201100200,
101001002200,
500000000000000000000000000008000000400000000000, //32
100200101100,
100200101100,
100200101100,
100200101100,
102202200200,
1122,
1222,
1122, //40
100200101101,
100200101100,
100200101101,
100200101100,
102202200200,
100100200201,
1222,
1122, //48
101002001101,
1122,
101002001101,
1122,
101001002201,
101001002001,
100101102201,
1122, //56
#GOGOSTART
301102201101,
102001102001,
101102201101,
102001102001,
102001102001,
102002202001,
101102202201,
1122, //64
301102201101,
102001102001,
101102201101,
102001102010,
100000000000100000005000000000000000080000000000,
100200202001,
101002202201,
100101102200, //72
#GOGOEND
7,
000000000000000000000000000000000000000000000008,
0,
0033,
300001002201,
002001100200,
101001002200,
500000000000000000000000000008000000400000000000,
300003000000,
0,
0, //83
#END

COURSE:Hard
LEVEL:6
BALLOON:13,13,13,13
SCOREINIT:1070,4680
SCOREDIFF:350
#START
1,
0,
1,
0,
3100,
3100,
300100000003,
001100200000, //8
#GOGOSTART
300100102200,
1120,
100100102200,
1120,
7,
00000800,
101100101100,
1120, //16
300100102200,
1120,
100100102200,
1120,
500000000000000000000000000000000000000000000008,
0220,
100000101100,
100000101100, //24
#GOGOEND
9,
000000000000000000000009000000000000000000000008,
0,
0033,
300001000001,
0011,
100002000000,
500000000000000000000000000008000000000000000000, //32
1110,
1210,
1110,
1210,
1122,
1110,
1122,
1110, //40
1110,
1210,
1110,
1210,
1122,
1110,
1122,
1110, //48
100001000000,
1122,
100001000000,
1122,
100001001000,
100001001000,
1112,
12, //56
#GOGOSTART
300100102200,
1120,
100100102200,
1120,
7,
00000800,
101100101100,
1120, //64
301100100200,
1120,
100100102200,
1120,
500000000000000000000000000000000000000000000008,
0220,
100000101100,
100000101100, //72
#GOGOEND
9,
000000000000000000000009000000000000000000000008,
0,
0033,
300002001101,
0022,
12,
500000000000000000000000000008000000000000000000,
300003000000,
0,
0, //83
#END

COURSE:Normal
LEVEL:3
BALLOON:10,9,10,9
SCOREINIT:890,6460
SCOREDIFF:345
#START
#SCROLL 0.75
1,
0,
1,
0,
3,
3,
300000000003,
02, //8
#GOGOSTART
3111,
12,
1111,
12,
7,
00000800,
12,
1120, //16
3111,
12,
1111,
12,
500000000000000000000000000000000000000000000008,
02,
1011,
1011, //24
#GOGOEND
9,
000000000000000000000009000000000000000000000008,
0,
0033,
3,
0011,
1,
2, //32
11,
1110,
11,
1110,
1011,
11,
12,
11, //40
1110,
12,
1110,
12,
1011,
11,
12,
11, //48
100001000000,
1110,
100001000000,
1110,
100001000000,
100001000000,
1111,
12, //56
#GOGOSTART
3111,
12,
1111,
12,
7,
00000800,
1111,
12, //64
3111,
12,
1111,
12,
500000000000000000000000000000000000000000000008,
02,
1011,
1011, //72
#GOGOEND
9,
000000000000000000000009000000000000000000000008,
0,
0033,
3,
0011,
1,
2,
300003000000,
0,
0, //83
#END

COURSE:Easy
LEVEL:2
BALLOON:8,7,8,7
SCOREINIT:890,10460
SCOREDIFF:583
#START
#SCROLL 0.75
1,
0,
1,
0,
3,
3,
300000000003,
0, //8
#GOGOSTART
3110,
1,
1110,
1,
7,
00000800,
1110,
12, //16
3110,
1,
1110,
1,
500000000000000000000000000000000000000000000008,
0,
11,
11, //24
#GOGOEND
9,
000000000000000000000009000000000000000000000008,
0,
03,
3,
01,
1,
2, //32
11,
1,
11,
1,
1,
2,
11,
1, //40
11,
1,
11,
1,
1,
2,
11,
1, //48
500000000000000000000000000008000000000000000000,
1,
500000000000000000000000000008000000000000000000,
1,
500000000000000000000000000008000000000000000000,
500000000000000000000000000008000000000000000000,
1011,
1, //56
#GOGOSTART
3110,
1,
1110,
1,
7,
00000800,
1110,
12, //64
3110,
1,
1110,
1,
500000000000000000000000000000000000000000000008,
0,
11,
11, //72
#GOGOEND
9,
000000000000000000000009000000000000000000000008,
0,
03,
3,
01,
1,
500000000000000000000000000008000000000000000000,
300003000000,
0,
0, //83
#END
