//TJADB Project
TITLE:More! Jump! More!
TITLEJA:モア!ジャンプ!モア!
SUBTITLE:--NayutalieN / MORE MORE JUMP × Hatsune Miku / Project Sekai: Colorful Stage feat. Hatsune Miku
SUBTITLEJA:MORE MORE JUMP! × 初音ミク 「プロジェクトセカイ カラフルステージ! feat. 初音ミク」
BPM:202
WAVE:More! Jump! More!.ogg
OFFSET:-1.188
DEMOSTART:50.641

COURSE:Oni
LEVEL:9
BALLOON:
SCOREINIT:1210
SCOREDIFF:0
#START
10200002,
1011102010102020,
10200002,
1011101020102210,
1020112010221020,
500000000008000000200000500000000000000008000000,
10111111,
4000300040002222,
1000100022102010,
0010111030004000, //10
1020112010201120,
1022102010201112,
1020112010201120,
1022102010201211,
1020112010201022,
1020102011221020,
33004400,
3432,
10201021,
10201022,
10201021,
1212,
10201021,
10201021,
100000000000200000500000000000000008000000100000,
02101040, //26
10221221,
12221221,
1120202010202010,
2220201022202010,
10221221,
1120202011202010,
100100200000200000500000000000000008000000400000,
0010200011104000,
1020201110002000,
1020201110002000,
1001201010012010,
1001201020101210,
500000000000000000000000000000000000000000000008,
00001212,
3333,
40404111, //42
#GOGOSTART
1022102010221020,
1120112010201112,
1022102010221020,
1120112010201211,
1020112010221020,
1020112210002222,
1111111120001111,
1111200022112211,
1022102010221020,
1120112010201112,
1022102010221020,
1120112010201211,
1020112010221020,
500000000008000000200000500000000000000008000000,
1000112010221020,
1120102022221110, //58
3020302030001112,
1020121110102210,
4010401040001211,
1020111210102220,
3020302030001112,
1020121110102210,
4010401040001211,
12223040,
1110402211104022,
1110221022104000,
1110402211104022,
1110221022104000,
1110402211104022,
1110221022104000,
1110402211104022,
1110221022104000,
33003300,
31314000, //76
#GOGOEND
2,
2,
2,
2,
21202120,
21202121,
34343043,
4030400022221122, //84
#GOGOSTART
1022102010221020,
1120112010201112,
1022102010221020,
1120112010201211,
1020112010221020,
500000000000000008000000100000200000100100100200,
500000000000000000000000000008000000000000200000,
1120102022221110,
3020302030201122,
1020122110102210,
4010401040101221,
1020112210102220,
3020302030201122,
1020122110102210,
4010401040101221,
1020112010101010,
1011111111111111,
#GOGOEND
2,
0, //103
#END

COURSE:Hard
LEVEL:6
BALLOON:18
SCOREINIT:2080
SCOREDIFF:0
#START
1200,
10101122,
1200,
10101122,
1111,
500000000008000000200000500000000000000008000000,
10111111,
3000300030001110,
10102211,
01114040, //10
11201120,
11221020,
11201120,
11221020,
7,
08,
33004400,
3430,
11,
10201120,
500000000000000000000000000000000008000000000000,
1212,
11,
10201120,
500000000000000000000000000000000008000000100000,
01101040, //26
10221011,
10201120,
500000000000000000000000000000000008000000000000,
1212,
10221011,
10201120,
500000000000000000000000000000000008000000100000,
01101040,
11211020,
11211020,
1001002010010020,
1001002010002000,
500000000000000000000000000000000000000000000008,
00002211,
3333,
4440, //42
#GOGOSTART
11201120,
11221022,
11201120,
1010202010001110,
10102210,
11211000,
11112011,
11204040,
11201120,
11221022,
11201120,
1010202010001110,
10102210,
500000000008000000200000500000000000000008000000,
10201120,
10202211, //58
3000300030001110,
1000111010000000,
4000400040001110,
1000111010000000,
3000300030001110,
1000111010000000,
40404011,
11223040,
1110400011104000,
1110100010004000,
1110400011104000,
1110100010004000,
1110400011104000,
1110100010004000,
1110400011104000,
1110100010004000,
33003300,
3340, //76
#GOGOEND
2,
2,
2,
2,
22102210,
22102211,
33333044,
44400000, //84
#GOGOSTART
11201120,
11221022,
11201120,
1010202010001110,
10102210,
500000000000000008000000100000000000200000200000,
500000000000000000000000000008000000000000000000,
10202211,
3000300030001110,
1000111010000000,
4000400040001110,
1000111010000000,
3000300030001110,
1000111010000000,
40404011,
11225000,
000000000000000000000000000000000000000008000000,
#GOGOEND
3,
0, //103
#END

COURSE:Normal
LEVEL:5
BALLOON:14,9,16
SCOREINIT:3860
SCOREDIFF:0
#START
1,
1,
1,
1,
1111,
5,
000000000000000000000000000008000000000000000000,
11,
10101001,
0144, //10
11,
1111,
11,
1111,
7,
08,
34,
3330,
11,
1111,
500000000000000000000000000000000008000000000000,
1111,
11,
2222,
500000000000000000000000000008000000000000100000,
0113, //26
11,
1111,
500000000000000000000000000000000008000000000000,
2222,
11,
1115,
500000000000000000000000000008000000000000100000,
0113,
10011000,
10011000,
10011001,
10011010,
500000000000000000000000000000000000000000000008,
0011,
3333,
4, //42
#GOGOSTART
1022,
1011,
1022,
10111000,
1122,
1120,
1111,
1144,
1022,
1011,
1022,
10111000,
1122,
5,
000000000000000000000000000008000000000000000000,
1122, //58
30303011,
1110,
40404022,
2220,
30303011,
1110,
4447,
0008,
0404,
0114,
0404,
0114,
0404,
0114,
0404,
0114,
33,
3340, //76
#GOGOEND
2,
0,
2,
0,
22,
22,
3334,
4400, //84
#GOGOSTART
1022,
1011,
1022,
10111000,
1122,
5,
000000000000000000000000000008000000000000000000,
1122,
30303011,
1110,
40404022,
2220,
30303011,
1110,
4447,
0,
08,
#GOGOEND
3,
0, //103
#END

COURSE:Easy
LEVEL:3
BALLOON:10,7,12
SCOREINIT:5510
SCOREDIFF:0
#START
1,
1,
1,
1,
11,
5,
000000000000000000000000000008000000000000000000,
1,
10001001,
0033, //10
11,
11,
11,
11,
7,
08,
33,
3330,
1,
10001005,
000000000000000000000000000008000000000000000000,
11,
1,
20002005,
000000000000000000000008000000000000000000100000,
0113, //26
1,
11,
500000000000000000000000000008000000000000000000,
11,
1,
2025,
000000000000000000000008000000000000000000100000,
0113,
1,
1,
11,
11,
500000000000000000000000000000000000000000000008,
01,
3333,
3, //42
#GOGOSTART
1011,
11,
1011,
11,
22,
2220,
3003,
0033,
1011,
11,
1011,
11,
22,
5,
000000000000000000000000000008000000000000000000,
11, //58
3330,
11,
4440,
22,
3330,
11,
4447,
0008,
0303,
0113,
0303,
0113,
0303,
0113,
0303,
0113,
33,
3330, //76
#GOGOEND
2,
0,
2,
0,
2,
2,
3333,
3300, //84
#GOGOSTART
1011,
11,
1011,
11,
22,
5,
000000000000000000000000000008000000000000000000,
11,
3330,
11,
4440,
22,
3330,
11,
4447,
0,
08,
#GOGOEND
3,
0, //103
#END
