//TJADB Project
TITLE:Tondemo-Wonderz
TITLEJA:トンデモワンダーズ
SUBTITLE:--sasakure.UK / Wonderlands×Showtime × KAITO / Project Sekai: Colorful Stage feat. Hatsune Miku
SUBTITLEJA:ワンダーランズ×ショウタイム × KAITO 「プロジェクトセカイ カラフルステージ! feat. 初音ミク」
BPM:172
WAVE:Tondemo-Wonderz.ogg
OFFSET:-0.942
DEMOSTART:31.638

COURSE:Oni
LEVEL:9
BALLOON:20
SCOREINIT:1240
SCOREDIFF:0
#START
12222101,
0022201020202010,
2220201020201020,
200100200200100010001000,
3020102012201022,
1022111012102000,
2011102211101020,
2011201011201020,
1022202011201020,
1111102010021000,
2011102211101020,
1022102210012000,
12221022,
12021222,
1001001010202020,
3333,
12221222,
12221202,
1011101121011022,
1011101121021010,
1111111111111111,
100100100100100100100100500008000000
#SCROLL 2
400000000000, //22
#SCROLL 1
#GOGOSTART
3022102210112040,
0012101010221111,
1011201220221010,
200100200000500000000008000000100200100200100000,
1122102210112040,
0012101010201110,
1212112211112222,
1122112111212000,
3022102210112040,
0012101010221111,
1011201220221010,
200100200000500000000008000000100200100200100000,
1122102210112040,
0012101010201110,
1212112211112222,
100100200200100100200200500008000000400000000000,
3022203022203022,
2030222030004000, //40
#GOGOEND
#MEASURE 3/4
#BPMCHANGE 180
302222,
302222,
302222,
302222,
100200100200102010201020100000200200,
121211221222,
111211221220,
#MEASURE 4/4
333333,
333333,
#BPMCHANGE 160
7,
08,
#BPMCHANGE 172
12121122,
01212102,
12211221,
200000200000500000000008000000200100200100200000,
12121122,
01210202,
30230223,
02230300,
#MEASURE 3/4
11111111
#SCROLL 2
4000, //60
#MEASURE 4/4
#SCROLL 1
#GOGOSTART
3022102210112040,
0012101010221111,
1011201220221010,
200100200000500000000008000000200100200100200000,
1122102210112040,
0012101010201110,
1212112211112222,
1122112111212000,
3022102210112040,
0012101010221111,
1011201220221010,
200100200000500000000008000000200100200100200000,
1122102210112040,
0012101010201110,
1212112211112222,
100100200200100100200200500008000000400000000000, //76
3022203022203022,
2030222030004000,
3021203021203021,
2030212030004000,
3012103012103012,
1030121030400000,
#GOGOEND
32222101,
0022201020202010,
2220201020201020,
#MEASURE 2/4
2122,
#MEASURE 4/4
#BPMCHANGE 180
333333,
323232323230,
0300,
0,
0, //91
#END

COURSE:Hard
LEVEL:6
BALLOON:16
SCOREINIT:2090
SCOREDIFF:0
#START
10222101,
02210221,
02210210,
200100000200100010001000,
30101210,
12121020,
21121102,
20201110,
11220110,
1110101010001000,
21121102,
20121020,
10011001,
10011020,
10011001,
3333,
10011001,
10011001,
1000101010020010,
1000101010020020,
11111111,
1110111010004000, //22
#GOGOSTART
3020102010111040,
01110201,
10212210,
200000200000500000000000000008000000000000000000,
1020102010111040,
01110201,
11021122,
02210220,
3020102010111040,
01110201,
10212210,
200000200000500000000000000008000000000000000000,
1020102010111040,
01110201,
1110101020202000,
1110101020002000,
12212212,
21223040, //40
#GOGOEND
#MEASURE 3/4
#BPMCHANGE 180
302220,
302220,
302220,
302220,
102222,
102222,
102222,
#MEASURE 4/4
111111,
333333,
#BPMCHANGE 160
7,
08,
#BPMCHANGE 172
10101122,
01111102,
10111020,
200000200000500000000000000008000000000000000000,
10101122,
01110200,
30030003,
02030300,
#MEASURE 3/4
500000000008000000000000400000000000, //60
#MEASURE 4/4
#GOGOSTART
3020102010111040,
01110201,
10212210,
200000200000500000000000000008000000000000000000,
1020102010111040,
01110201,
11021122,
02210220,
3020102010111040,
01110201,
10212210,
200000200000500000000000000008000000000000000000,
1020102010111040,
01110201,
1110101020202000,
1110101020002000, //76
12212212,
21223040,
12212212,
21223040,
32232232,
23223400,
#GOGOEND
10222101,
02210221,
02210210,
#MEASURE 2/4
2102,
#MEASURE 4/4
#BPMCHANGE 180
6,
000000000000000000000000000000000000000008000000,
0300,
0,
0, //91
#END

COURSE:Normal
LEVEL:5
BALLOON:16
SCOREINIT:3550
SCOREDIFF:0
#START
10000101,
00010005,
0,
000000000000000000000008000000000000000000000000,
30101100,
1110,
10110100,
2220,
10110110,
11101000,
10110100,
2222,
11,
11,
11,
3333,
11,
11,
1110,
10101005,
0,
000000000000000000000008000000000000400000000000, //22
#GOGOSTART
30101102,
01110100,
10101110,
200000200000500000000000000008000000000000000000,
10101102,
01110100,
11001101,
01110220,
30101102,
01110100,
10101110,
200000200000500000000000000008000000000000000000,
10101102,
01110100,
11101110,
1122,
10110110,
11013040, //40
#GOGOEND
#MEASURE 3/4
#BPMCHANGE 180
3,
3,
3,
3,
122,
122,
122,
#MEASURE 4/4
9,
09,
#BPMCHANGE 160
8,
0,
#BPMCHANGE 172
10101101,
0110,
1110,
200000000000500000000000000008000000000000000000,
10101101,
00110100,
30030003,
00030300,
#MEASURE 3/4
500000000008000000000000400000000000, //60
#MEASURE 4/4
#GOGOSTART
30101102,
01110100,
10101110,
200000200000500000000000000008000000000000000000,
10101102,
01110100,
11001101,
01110220,
30101102,
01110100,
10101110,
200000200000500000000000000008000000000000000000,
10101102,
01110100,
11101110,
1122, //76
10110110,
11013040,
10110110,
11013040,
30110110,
11033400,
#GOGOEND
10000101,
00010005,
0,
#MEASURE 2/4
000000000008000000000000,
#MEASURE 4/4
#BPMCHANGE 180
6,
000000000000000000000000000000000000000008000000,
0300,
0,
0, //91
#END

COURSE:Easy
LEVEL:3
BALLOON:13
SCOREINIT:7740
SCOREDIFF:0
#START
10000001,
00000005,
0,
000000000000000000000008000000000000000000000000,
3,
11,
1,
2,
1,
11,
1,
2,
1,
1,
1,
33,
1,
1,
11,
10001005,
0,
000000000000000000000008000000000000000000000000, //22
#GOGOSTART
10101001,
00010000,
11,
500000000000000000000000000008000000000000000000,
10101001,
00010000,
10000001,
00010000,
10101001,
00010000,
11,
500000000000000000000000000008000000000000000000,
10101001,
00010000,
11,
1110,
10010010,
01001000, //40
#GOGOEND
#MEASURE 3/4
#BPMCHANGE 180
3,
3,
3,
3,
3,
3,
3,
#MEASURE 4/4
9,
09,
#BPMCHANGE 160
8,
0,
#BPMCHANGE 172
10000001,
01,
11,
500000000000000000000000000008000000000000000000,
10000001,
00010000,
30000003,
00030000,
#MEASURE 3/4
0, //60
#MEASURE 4/4
#GOGOSTART
10101001,
00010000,
11,
500000000000000000000000000008000000000000000000,
10101001,
00010000,
10000001,
00010000,
10101001,
00010000,
11,
500000000000000000000000000008000000000000000000,
10101001,
00010000,
11,
1110, //76
10010010,
01001000,
30030030,
03003000,
40040040,
04004000,
#GOGOEND
10000001,
00000005,
0,
#MEASURE 2/4
000008000000000000000000,
#MEASURE 4/4
#BPMCHANGE 180
6,
000000000000000000000000000000000000000008000000,
0300,
0,
0, //91
#END
