//TJADB Project
TITLE:Bug
TITLEJA:バグ
SUBTITLE:--Kairiki Bear / 25-ji, Nightcord de. × Kagamine Len / Project Sekai: Colorful Stage feat. Hatsune Miku
SUBTITLEJA:25時、ナイトコードで。 × 鏡音レン 「プロジェクトセカイ カラフルステージ! feat. 初音ミク」
BPM:186
WAVE:Bug.ogg
OFFSET:-1.307
DEMOSTART:46.138

COURSE:Oni
LEVEL:8
BALLOON:4
SCOREINIT:1560
SCOREDIFF:0
#START
12012012,
2011202030004000,
1000200010111020,
0011101110112000,
1000200010111020,
0022202220221000,
1000200010111020,
0011101110112000,
1000200010111020,
0022202220221000,
10101011,
01111020,
10101102,
0020201020112000,
10101011,
01111020,
30000005,
000000000000000000000008000000000000000000000000, //18
10201121,
01211020,
10201121,
0020201020112000,
10201121,
01121020,
10201121,
02212040,
10101201,
0010201020001110,
20202102,
0020102010222000,
30303403,
03434021,
1000201010222010,
12121002,
32323000, //35
#GOGOSTART
1000102010112020,
1011201020002010,
1010202010112010,
4030403000112000,
1000102010112020,
1011201020002010,
1022102210200011,
2011201120004000,
10101201,
01212021,
1022102210200011,
2011201120004000,
10101201,
01212021,
1022102210200011,
2011201120000021,
2021202120000000, //52
#GOGOEND
1000200010111020,
0011101110112000,
1000200010111020,
0022202220221000,
1000000022220000,
1000400011102010,
0010201022202220,
1000202011102010,
0022201020102010,
1000400011102010,
0010201022202220,
1000202011102010,
0022201020102010,
00000004,
0, //67
34,
3340,
0,
4030403000112000,
10121122,
1011101020000000,
33003000,
41414001,
41414030, //76
#GOGOSTART
1000102010112020,
1011201020002010,
1010202010112010,
4030403000112000,
1000102010112020,
1011201020002010,
1022102210200011,
2011201120004000,
10101201,
01212021,
1022102210200011,
2011201120004000,
10101201,
01212021,
1022102210200011,
2011201120000021,
2021202120000010,
1011102010111020,
1011201120112011,
2430,
#GOGOEND
0, //97
#END

COURSE:Hard
LEVEL:5
BALLOON:17
SCOREINIT:2580
SCOREDIFF:0
#START
7,
08,
10101101,
0222,
10101101,
0222,
10101101,
0222,
10101101,
0222,
10001001,
01101000,
10101102,
02202000,
10001001,
01101000,
20000005,
000000000000000000000008000000000000000000000000, //18
10101011,
01101000,
10101102,
02202000,
10101011,
01101000,
10101102,
02202000,
10101101,
01111000,
20202202,
02222000,
30304403,
04444000,
10001011,
1110,
3330, //35
#GOGOSTART
10112020,
30334000,
10221020,
33440000,
10112020,
30334000,
12121200,
21212000,
10102201,
02222000,
12121200,
21212000,
10102201,
02222000,
12121200,
21212000,
21214000, //52
#GOGOEND
10101101,
0222,
10101101,
0222,
10002200,
10201101,
01102020,
10201101,
02202020,
10201101,
01102020,
10201101,
02202020,
20000004,
0, //67
34,
3340,
0,
33440000,
1122,
10112000,
33003000,
4440,
4440, //76
#GOGOSTART
10112020,
30334000,
10221020,
33440000,
10112020,
30334000,
12121200,
21212000,
10102201,
02222000,
12121200,
21212000,
10102201,
02222000,
12121200,
21212000,
21214000,
12101210,
12121212,
3430,
#GOGOEND
0, //97
#END

COURSE:Normal
LEVEL:4
BALLOON:11
SCOREINIT:4090
SCOREDIFF:0
#START
7,
08,
10101001,
0,
10101001,
0,
10101001,
0,
10101001,
0,
10001001,
0110,
10101001,
0110,
10001001,
0110,
20000005,
000000000000000000000008000000000000000000000000, //18
10001001,
0110,
10101001,
0220,
10001001,
0110,
10101001,
0220,
10101001,
0110,
10101001,
0110,
30303003,
0330,
11,
1110,
3330, //35
#GOGOSTART
1122,
3340,
1212,
600000000000000008000000000000000000000000000000,
1122,
3340,
1110,
2220,
10102001,
0440,
1110,
2220,
10102001,
0440,
1110,
2220,
4440, //52
#GOGOEND
10101001,
0,
10101001,
0,
2,
40001001,
0110,
10101001,
0,
10101001,
0110,
10101001,
0,
20000004,
0, //67
34,
3340,
0,
600000000000000008000000000000000000000000000000,
1111,
2220,
33,
4440,
4440, //76
#GOGOSTART
1122,
3340,
1212,
600000000000000008000000000000000000000000000000,
1122,
3340,
1110,
2220,
10102001,
0440,
1110,
2220,
10102001,
0440,
1110,
2220,
4440,
1111,
3333,
3440,
#GOGOEND
0, //97
#END

COURSE:Easy
LEVEL:3
BALLOON:
SCOREINIT:5180
SCOREDIFF:0
#START
0,
0,
11,
0,
11,
0,
11,
0,
11,
0,
11,
0110,
11,
0220,
11,
0110,
20000005,
000000000000000000000008000000000000000000000000, //18
11,
0110,
11,
0220,
11,
0110,
11,
0220,
1110,
0110,
1110,
0110,
3330,
0330,
11,
1110,
3330, //35
#GOGOSTART
11,
3330,
11,
600000000000000008000000000000000000000000000000,
11,
3330,
1110,
2220,
1110,
0330,
1110,
2220,
1110,
0330,
1110,
2220,
4440, //52
#GOGOEND
11,
0,
11,
0,
2,
4,
0110,
11,
0,
11,
0110,
11,
0,
20000004,
0, //67
33,
3330,
0,
600000000000000008000000000000000000000000000000,
11,
1110,
33,
4440,
4440, //76
#GOGOSTART
11,
3330,
1110,
600000000000000008000000000000000000000000000000,
11,
3330,
1110,
2220,
1110,
0330,
1110,
2220,
1110,
0330,
1110,
2220,
4440,
1111,
3333,
34,
#GOGOEND
0, //97
#END
