//TJADB Project
TITLE:CHAOTiC BATTLE
TITLEJA:CHAOTiC BATTLE
SUBTITLE:--YOFUKASHi Sound Team from "Cosmic Radio 2025"
SUBTITLEJA:YOFUKASHi Sound Team from "Cosmic Radio 2025"
BPM:145
WAVE:CHAOTiC BATTLE.ogg
OFFSET:-1.992
DEMOSTART:2.396

COURSE:Oni
LEVEL:10
BALLOON:2,7
SCOREINIT:940
SCOREDIFF:0
#START
#MEASURE 1/4
202202,
#MEASURE 4/4
100000100000200010200000100010100200100200200200,
100000200200100200002000102020100000202010100000,
100000200100000100200000102020100100000200100200,
100000200020100010200020100100100010000020002000,
302102102101002100201201,
000202101202101102001200,
300222101202100112122222,
100000000000300000000000300000101010200200200200,
1000201020201120,
100020002000200020001000100000100000200200200200,
1000201020202211,
500000000000000000000008000000000000100000100100,
2010221010201221,
2011102010102012,
1111222212212122,
700080000000000000000000000000100100200000000000, //17
500008000000101010101010100000100000100100000100,
2010110121212210,
500008000000100000100100100000100000100100000100,
2010110121211221,
500000000080000000000000100100100000200000200000100000200000000000100000200000000000100000100000,
0122112211011010,
500008000000100000100100200100100200100100500000,
000008000000100000200000300000000000300000000000,
3000001121212211,
000100100000101010202020100000100000200100200100,
0110121202110121,
000000200000100100100000200000200000100000100000100010002000200010001000200000100000000000
#GOGOSTART
400000, //29
0000121222112212,
0221112121120122,
0110221120110204,
0010202101221210,
300000000200100200100100200100202020100200200100,
10102020111020201022101022201110,
2012012210210211,
200000000100100000400000000200200200101010200200,
100000000200100000100100200000100000200100202020,
100000000100100000101010200000101010200200102020,
500000000000000008000000100100200100200200100100,
1020120300400000, //41
#GOGOEND
100100200200100100200200100100200200101010100000,
100100200200100100200200100100200200101010200000,
1122112211221222,
12121440,
1002112210101022,
1010102211202010,
1002112210101022,
1010102211212110,
3000220210222020,
1022020210202220,
1000000020120120,
1000200010221022, //53
100000100200100100200111,
#BPMCHANGE 149.25
200000100000200000100200000100200000201020102010,
#BPMCHANGE 155
2000102011212212,
#BPMCHANGE 160.1
2021012012212222,
#BPMCHANGE 165
100200200200100000100200200200101010200200100200,
#BPMCHANGE 170.1
100200200100100200200200000100200000100200001010,
#BPMCHANGE 175
200000000000100100200200100100200200101010202020,
#SCROLL 2
300030003000
#SCROLL 1
1122,
1000110100102020,
1000110100102020,
10220225,
000000000008000000200200100100100100200200100200,
1011201011201011,
2010112010112020,
2111112111117000,
0000800011212122, //69
#GOGOSTART
1012102212021222,
1002102011221212,
100000100200100000200200102020100000100200200200,
100000000200101010200000100100200000100100200200,
1022102212201020,
100000200200100000202020100000202020100100200200,
100000100100200200500000000000000008000000101010,
2012012012012211,
#GOGOEND
1010
#SCROLL 2
#GOGOSTART
40
#SCROLL 1
0212021222,
1002102011221212,
100000200200100000200200100100100200101010202020,
1022221022221022,
1010201101102011,
1010201101102022,
1111111110110110,
600000000000000000000000000008000000400000000000, //85
300000100100202020200000100100100100500008000000,
#SCROLL 2
30
#SCROLL 1
22
#SCROLL 2
30
#SCROLL 1
22
#SCROLL 2
30
#SCROLL 1
11
#SCROLL 2
4000, //87
#GOGOEND
#SCROLL 1
3000201012112102,
1010222220102020,
1000201012112102,
1010222220101020,
300000000000200000200200101010101010
#SCROLL 2
300000000300,
0330300303304000,
#SCROLL 1
1111202212112122,
100100200200100222100200,
5,
000000000000000008000000000000000000000000000000,
0, //98
#END

COURSE:Hard
LEVEL:7
BALLOON:5
SCOREINIT:1390
SCOREDIFF:0
#START
#MEASURE 1/4
2,
#MEASURE 4/4
1010200010110220,
1022020011102220,
1011022011010220,
100200100200100101002000,
300100100101000100200202,
000200100200100101000200,
30121012,
3000300030002220,
10202202,
202020202020200100200200,
10202201,
500000000000000000000008000000000000100000000000,
2010201010200200,
21121122,
1110222011022020,
10000120, //17
500008000000100000000000100000100000100100000100,
1010110111102020,
500008000000100000000000100000100000100100000100,
1010110222201110,
500008000000100100100000200200000200200000100100,
0220222011011010,
500008000000100000100000200000000200000000500000,
000008000000200000200000300000000000300000000000,
3000001020202201,
0100102010102022,
0110102201010111,
011020101110220
#GOGOSTART
4, //29
0000101022011111,
0110222011020222,
0010201110220204,
0010202201101110,
3000101011102220,
1120112011201120,
2002002010010011,
2000204002201110,
1001101020102022,
1001101120112011,
500000000000000008000000100100100000200200200000,
1020120300400000, //41
#GOGOEND
12121210,
12121211,
1020102011201120,
1114,
1000111010101020,
11121220,
1000111010101020,
1010102010222000,
3000220210002020,
1022020210002020,
1000000020020020,
10201212, //53
10120121,
#BPMCHANGE 149.25
2000200200200000,
#BPMCHANGE 155
20121122,
#BPMCHANGE 160.1
1022001022001020,
#BPMCHANGE 165
2220102220101000,
#BPMCHANGE 170.1
1110220200200200,
#BPMCHANGE 175
2000111022201110,
3000300030001111,
1000200200102020,
1000200200102020,
10220225,
000000000008000000200000100000100000200000200000,
11211211,
21121122,
1111101111107000,
0000800011102220, //69
#GOGOSTART
1010102012021020,
1001102010002220,
1010102210201011,
1001102010201120,
1020102101201020,
0022102210221010,
100000000000100000500000000000000008000000000000,
1012012012012010,
#GOGOEND
1000
#GOGOSTART
400012021020,
1001102010002220,
1011102011102220,
1022201022201022,
1010201001102000,
1010201001102020,
1110111110110110,
600000000000000000000000000008000000400000000000,
300000300000200000000000300000300000500008000000,
3334, //87
#GOGOEND
3000201010202100,
11220122,
1000201010202100,
11222112,
3000202011103003,
0110300301104000,
1110202010112020,
1010202010221020,
5,
000000000000000008000000000000000000000000000000,
0, //98
#END

COURSE:Normal
LEVEL:6
BALLOON:6
SCOREINIT:2240
SCOREDIFF:0
#START
#MEASURE 1/4
2,
#MEASURE 4/4
1010100010010010,
1012,
1001001020020020,
11101000,
300000100001000000200002,
000000100000100001000000,
30111011,
3332,
10022002,
20202002,
10022002,
500000000000000000000008000000000000000000000000,
2000200020200200,
20020202,
10101111,
1002, //17
500000000008000000000000100000100000100000000000,
11101120,
500000000008000000000000100000100000100000000000,
11102011,
500000000008000000000000200000000000100000100000,
10221011,
500000000008000000000000200000000200000000200000,
00113030,
3000000020002002,
0000100010002002,
0010100100010101,
000000101000200
#GOGOSTART
4, //29
0000101020001001,
0000200020020002,
0000200020200204,
0000100100001010,
30101120,
12101210,
2002002010010010,
20240111,
10102220,
10102120,
500000000008000000000000100000100000200000000000,
1000100300400000, //41
#GOGOEND
1111,
10101011,
10101111,
1114,
10101110,
11101220,
10101110,
11101220,
30201022,
1002020010002000,
1000000020020020,
1211, //53
10110110,
#BPMCHANGE 149.25
20110110,
#BPMCHANGE 155
20120120,
#BPMCHANGE 160.1
1001001001002020,
#BPMCHANGE 165
20120120,
#BPMCHANGE 170.1
1000200200200200,
#BPMCHANGE 175
20120120,
3330,
1000200200002000,
1000200200002000,
10220205,
000000000008000000000000100000000000100000000000,
11011011,
01101120,
11111070,
08, //69
#GOGOSTART
11101012,
1001001000102020,
11101211,
1001001000102000,
11110222,
02121210,
100000000000100000500000000000000008000000000000,
1001001001001010,
#GOGOEND
10
#GOGOSTART
401012,
1001001000102020,
11101122,
10210210,
11200120,
11200120,
1010101010010010,
600000000000000000000000000008000000400000000000,
33003300,
3334, //87
#GOGOEND
30200120,
10220120,
10200120,
11220120,
3000200010101001,
0110100101102000,
10221022,
11221110,
5,
000000000000000008000000000000000000000000000000,
0, //98
#END

COURSE:Easy
LEVEL:4
BALLOON:4,4
SCOREINIT:4690
SCOREDIFF:0
#START
#MEASURE 1/4
0,
#MEASURE 4/4
11,
1011,
11,
1110,
300000000000000000000002,
01,
33,
3330,
10000002,
0,
12,
500000000000000000000008000000000000000000000000,
22,
2,
1111,
1, //17
500000000008000000000000100000000000000000000000,
1011,
500000000008000000000000100000000000000000000000,
1022,
500000000008000000000000200000000000000000000000,
1110,
500000000008000000000000200000000000000000500000,
000008000000000000000000300000000000300000000000,
3000000000000001,
0000000000000001,
0000000000000001,
000000001000000
#GOGOSTART
4, //29
0000000010000001,
0000000020000002,
0000000010000004,
0001,
31,
1111,
21,
20040000,
1120,
1122,
500000000008000000000000100000000000000000000000,
1000000300000000, //41
#GOGOEND
11,
11,
1111,
1004,
1011,
1120,
1011,
1120,
31,
1012,
12,
1011, //53
1,
#BPMCHANGE 149.25
2,
#BPMCHANGE 155
20020000,
#BPMCHANGE 160.1
1,
#BPMCHANGE 165
20020000,
#BPMCHANGE 170.1
1,
#BPMCHANGE 175
20020000,
3330,
1000000200000000,
1000000200000000,
10020005,
000000000008000000000000000000000000000000000000,
10010010,
01001010,
10010070,
08, //69
#GOGOSTART
1111,
1001001000000000,
1111,
1001001000000000,
10010011,
0111,
100000000000000000500000000000000008000000000000,
1002,
#GOGOEND
1
#GOGOSTART
411,
1001001000000000,
10101011,
10010010,
1202,
1202,
500000000000000000000000000000000008000000000000,
600000000000000000000008000000000000400000000000,
33,
3334, //87
#GOGOEND
3202,
1202,
1202,
1202,
3017,
08,
1111,
10110110,
5,
000000000000000008000000000000000000000000000000,
0, //98
#END
