//TJADB Project
TITLE:Re:Play!!
TITLEJA:Re:Play!!
SUBTITLE:--Licht Tsuboi × Yoshihito Yano(BNSI) feat. Nanahira & Yoko Takamitsu
SUBTITLEJA:坪井リヒト × 矢野義人(BNSI) feat. ななひら & たかみつようこ
BPM:190
WAVE:RePlay!!.ogg
OFFSET:-1.104
DEMOSTART:41.157 //SONG_ID:25t1st //Shinuchi:
5310/3720/2270/1450

COURSE:Oni
LEVEL:8
BALLOON:25
SCOREINIT:450,1590
SCOREDIFF:113
#START
2,
2,
2,
2220222022202000,
#GOGOSTART
1020102010221020,
1020102010222020,
1020102010221020,
1020102010222220, //8
#GOGOEND
1,
0,
2,
0,
20002022,
0020202022204000,
10211020,
1000201011102020,
10211020,
1000201011102020,
1000001110000011,
1000200011112222, //20
1000400010111010,
0020102010222020,
1000400010111010,
0020102010222020,
1000200010111010,
0020102010202210,
10010005,
000000000000000000000000000000000008000000000000,
10010005,
000000000000000000000000000000000008000000100000,
0010111011101111,
13000040, //32
#GOGOSTART
3000201120102010,
1110201000102000,
3000201120102010,
2220111022201010,
0000200011102010,
1110201000102010,
1120201011202010,
1111201111202000,
3000201120102010,
1110201000102011,
1010201110102022,
1000201111102020, //44
#GOGOEND
0000
#GOGOSTART
300022201010,
1022101010221010,
3333,
600000000000000000000008000000000000000000000000,
1020102011201120,
1011111030004000,
1020102011201120,
1022222030004000,
1020102011201120,
1011111010002020,
1111202011112020,
3330, //56
#GOGOEND
1022202022202020,
30430430,
1022202022202020,
30430430,
12212212,
2010202010222020,
1011101110111011,
22220220,
500000000000000000000000000000000000000000000008,
0,
2,
0003, //68
#GOGOSTART
3,
#GOGOEND
33030030,
#GOGOSTART
30111111,
1110111011111010,
#GOGOEND
0000
#GOGOSTART
201011102010,
1110201000102010,
1120201011202010,
1111201111202000,
3000201120102010,
1110201000102011,
1010201110102022,
1000201111102020, //80
#GOGOEND
0000
#GOGOSTART
300022201010,
1022101010221010,
3333,
600000000000000000000000000000000008000000000000,
1020102011201120,
1022111030004000,
1020102011201120,
1022111030004000,
1020102011201120,
1022111110222020,
1111222211112220,
03333000, //92
#GOGOEND
4,
0,
7,
000000000000000000000000000000000000000000000008,
0,
0,
0, //99
#END

COURSE:Hard
LEVEL:5
BALLOON:20
SCOREINIT:520,2720
SCOREDIFF:135
#START
2,
2,
2,
03,
#GOGOSTART
10101012,
10101210,
10101012,
10101210, //8
#GOGOEND
1,
0,
2,
0,
20002002,
02204040,
10211020,
10201120,
10211020,
10201120,
1000001110000011,
1000200011102000, //20
10401121,
02121000,
10401121,
02121000,
10201121,
02101020,
10010005,
000000000000000000000000000000000008000000000000,
10010005,
000000000000000000000000000000000008000000100000,
0000111011101110,
33000030, //32
#GOGOSTART
30201110,
22010030,
30201110,
30303033,
00201110,
20101110,
2000100010111000,
500000000000000000000000000000000008000000000000,
30201110,
22010010,
1011100010111000,
100000000000000000500000000000000000000008000000, //44
#GOGOEND
0
#GOGOSTART
301,
10201110,
3333,
600000000000000000000008000000000000000000000000,
10101212,
1011100030004000,
10101212,
1022200030004000,
10101212,
1011100010000000,
1110100011101000,
3330, //56
#GOGOEND
1,
30330330,
2,
40440440,
1212,
10201210,
12121212,
1,
500000000000000000000000000000000000000000000008,
0,
2,
0003, //68
#GOGOSTART
3,
#GOGOEND
33030030,
#GOGOSTART
30111111,
30303033,
#GOGOEND
00
#GOGOSTART
201110,
20101110,
2000100010111000,
500000000000000000000000000000000008000000000000,
30201110,
22010010,
2022200020222000,
200000000000000000500000000000000000000008000000, //80
#GOGOEND
0
#GOGOSTART
301,
10201110,
3333,
600000000000000000000000000000000008000000000000,
10101212,
1011100030004000,
10101212,
1022200030004000,
10101212,
1011100010000000,
1111100011111000,
03333000, //92
#GOGOEND
4,
0,
7,
000000000000000000000000000000000000000000000008,
0,
0,
0, //99
#END

COURSE:Normal
LEVEL:4
BALLOON:10,15
SCOREINIT:620,4640
SCOREDIFF:185
#START
1,
1,
1,
03,
#GOGOSTART
6,
000000000000000000000000000000000000000000000008,
0,
0, //8
#GOGOEND
1,
0,
1,
0,
1,
0044,
11,
1110,
11,
1110,
2,
1111, //20
1400,
0110,
1400,
0110,
10200002,
0,
10010005,
000000000000000000000000000000000008000000000000,
10010005,
000000000000000000000000000008000000000000700000,
0,
080000000000000000000000000000000000300000000000, //32
#GOGOSTART
3011,
1003,
3011,
3333,
0111,
2111,
2111,
500000000000000000000000000000000008000000000000,
3011,
12,
1011,
100000000000000000500000000000000000000008000000, //44
#GOGOEND
0
#GOGOSTART
300,
1110,
3333,
600000000000000000000008000000000000000000000000,
1111,
11103030,
1111,
11104040,
1111,
11101000,
11101110,
3330, //56
#GOGOEND
1,
10110110,
1,
10110110,
11,
11,
1111,
1,
500000000000000000000000000000000000000000000008,
0,
2,
0003, //68
#GOGOSTART
3,
#GOGOEND
3003,
#GOGOSTART
30111110,
3333,
#GOGOEND
0
#GOGOSTART
111,
2111,
2111,
500000000000000000000000000000000008000000000000,
3011,
12,
1112,
200000000000000000500000000000000000000008000000, //80
#GOGOEND
0
#GOGOSTART
300,
1110,
3333,
600000000000000000000000000000000008000000000000,
1111,
11103030,
1111,
11104040,
1111,
11101000,
11101110,
600000000000000000000008000000000000000000000000, //92
#GOGOEND
4,
0,
7,
000000000000000000000000000000000000000000000008,
0,
0,
0, //99
#END

COURSE:Easy
LEVEL:3
BALLOON:8,3,3,10
SCOREINIT:550,6840
SCOREDIFF:180
#START
1,
1,
1,
03,
#GOGOSTART
6,
000000000000000000000000000000000000000000000008,
0,
0, //8
#GOGOEND
1,
0,
1,
0,
1,
04,
11,
1,
11,
1,
1,
1111, //20
1,
01,
1,
01,
10000002,
0,
10010005,
000000000000000000000000000008000000000000000000,
10010005,
000000000000000000000000000008000000000000700000,
0,
080000000000000000000000000000000000000000000000, //32
#GOGOSTART
31,
1,
31,
3333,
0101,
0101,
1110,
500000000000000000000000000008000000000000000000,
31,
1,
11,
1, //44
#GOGOEND
0
#GOGOSTART
300,
11,
3333,
600000000000000000000008000000000000000000000000,
1111,
13,
1111,
14,
1111,
11,
11,
3330, //56
#GOGOEND
1,
70000800,
1,
70000800,
11,
11,
1111,
1,
500000000000000000000000000000000000000000000008,
0,
2,
0, //68
#GOGOSTART
3,
#GOGOEND
3,
#GOGOSTART
31,
3333,
#GOGOEND
0
#GOGOSTART
101,
0101,
1110,
500000000000000000000000000008000000000000000000,
3011,
12,
1011,
1, //80
#GOGOEND
0
#GOGOSTART
300,
11,
3333,
600000000000000000000000000008000000000000000000,
1111,
13,
1111,
14,
1111,
11,
11,
600000000000000000000008000000000000000000000000, //92
#GOGOEND
4,
0,
7,
000000000000000000000000000000000000000000000008,
0,
0,
0, //99
#END
